<?xml version="1.0" standalone="no"?>
<!DOCTYPE svg PUBLIC "-//W3C//DTD SVG 1.1//EN" "http://www.w3.org/Graphics/SVG/1.1/DTD/svg11.dtd">
<svg xmlns="http://www.w3.org/2000/svg">
<metadata>Generated by Fontastic.me</metadata>
<defs>
<font id="cs-icon-font-cb" horiz-adv-x="512">
<font-face font-family="cs-icon-font-cb" units-per-em="512" ascent="480" descent="-32"/>
<missing-glyph horiz-adv-x="512" />

<glyph glyph-name="cs-add-circle" unicode="&#100;" d="M272 352l-32 0 0-80-80 0 0-32 80 0 0-80 32 0 0 80 80 0 0 32-80 0z m-16 112c115 0 208-93 208-208 0-115-93-208-208-208-115 0-208 93-208 208 0 115 93 208 208 208m0 32c-133 0-240-107-240-240 0-133 107-240 240-240 133 0 240 107 240 240 0 133-107 240-240 240z"/>
<glyph glyph-name="cs-add-workflow" unicode="&#99;" d="M448 320c-30 0-54-21-61-48l-69 0c-6 27-32 48-60 48-29 0-55-21-61-48l-72 0c-7 27-32 48-61 48-35 0-64-29-64-64 0-35 29-64 64-64 30 0 54 21 61 48l69 0c8-27 32-48 60-48 31 0 55 21 61 48l69 0c6-27 32-48 61-48 35 0 64 29 64 64 3 35-26 64-61 64z m-384-96c-18 0-32 14-32 32 0 18 14 32 32 32 18 0 32-14 32-32 0-18-14-32-32-32z m192 0c-18 0-32 14-32 32 0 18 14 32 32 32 18 0 32-14 32-32 0-18-14-32-32-32z m192 0c-18 0-32 14-32 32 0 18 14 32 32 32 18 0 32-14 32-32 0-18-14-32-32-32z"/>
<glyph glyph-name="cs-birthday" unicode="&#109;" d="M464 192l-32 0 0 85c0 27-21 41-48 41l-70 0 0 95-32 0 0-93-58 0 0 93-32 0 0-93-56 0c-27 0-48-16-48-42l0-84-40 0c-27 0-48-21-48-48l0-96c0-28 21-48 48-48l416 0c27 0 48 20 48 48l0 96c0 25-21 46-48 46z m16-144c0-10-6-16-16-16l-416 0c-10 0-16 6-16 16l0 96c0 10 6 16 16 16l72 0-2 117c0 9 7 9 16 9l250 0c8 0 16-1 16-9l0-117 64 0c10 0 16-6 16-16z m-272 382c8 0 16 8 16 18 0 10-8 34-16 34-10 0-18-24-18-34 0-10 8-18 18-18z m90 0c9 0 17 8 17 18 0 10-8 34-17 34-10 0-18-24-18-34 0-10 8-18 18-18z"/>
<glyph glyph-name="cs-cancel-circle" unicode="&#115;" d="M312 334l-56-56-56 56-22-22 56-56-56-56 22-22 56 56 56-56 22 22-56 56 56 56z m-56 130c115 0 208-93 208-208 0-115-93-208-208-208-115 0-208 93-208 208 0 115 93 208 208 208m0 32c-133 0-240-107-240-240 0-133 107-240 240-240 133 0 240 107 240 240 0 133-107 240-240 240z"/>
<glyph glyph-name="cs-client-list" unicode="&#110;" d="M322 274l190 0 0-32-190 0z m32-111l158 0 0-32-158 0z m-188 93c53 0 96 43 96 96 0 53-43 96-96 96-52 0-96-43-96-96 2-53 44-96 96-96m0 160c36 0 64-29 64-64 0-35-28-64-64-64-35 0-64 29-64 64 2 35 31 64 64 64m0-184c-91 0-166-88-166-168l333 0c1 80-74 168-167 168m0-136l-131 0c15 48 67 102 131 102 64 0 117-54 132-102z m124 288l222 0 0-32-222 0z"/>
<glyph glyph-name="cs-coffe-cup" unicode="&#65;" d="M416 277l0 48-416 0 0-197c0-70 56-123 126-123l162 0c61 0 112 40 125 96l3 0c54 0 96 38 96 91 0 50-40 85-96 85z m-384 16l352 0 0-165c0-3 0-8 0-11l-352 0c0 3 0 6 0 11z m256-256l-162 0c-36 0-68 19-84 48l331 0c-16-29-48-48-85-48z m128 96l0 112c38 0 64-21 64-55 0-32-27-57-64-57z m-304 352l32 0 0-128-32 0z m80 32l32 0 0-128-32 0z m64-48l32 0 0-96-32 0z"/>
<glyph glyph-name="cs-collapse" unicode="&#67;" d="M96 176l58 0-149-149 22-22 149 149 0-58 32 0 0 112-112 0z m320 160l-58 0 149 149-22 22-149-149 0 58-32 0 0-112 112 0z m-240 22l-149 149-22-22 149-149-58 0 0-32 112 0 0 112-32 0z m240-182l0 32-112 0 0-112 32 0 0 58 149-149 22 22-149 149z"/>
<glyph glyph-name="cs-company" unicode="&#69;" d="M138 416l169 0 0-32-169 0z m0-75l169 0 0-32-169 0z m0-74l169 0 0-32-169 0z m0-75l169 0 0-32-169 0z m225 58l0 244-280 0 0-462-83 0 0-32 189 0 0 106 72 0 0-106 251 0 0 296z m-32-218l-38 0 0 106-136 0 0-106-42 0 0 430 216 0z m149 0l-117 0 0 184 117 37z"/>
<glyph glyph-name="cs-corporate-prospects" unicode="&#70;" d="M432 458l-16 0 0-31 16 0c5 0 10 2 13 5 1 2 3 5 3 10 0 6-2 9-5 12-1 2-6 4-11 4z m-5 56c-46 0-85-39-85-85 0-47 39-85 85-85 47 0 85 37 85 83 0 47-38 87-85 87z m35-87c-3-5-6-8-11-9-5-2-9-4-16-4l-21 0 0-30-17 0 0 88 37 0c11 0 17-3 24-8 4-5 8-13 8-21 1-6 0-11-4-16z m-324-11l169 0 0-32-169 0z m0-75l169 0 0-32-169 0z m0-74l169 0 0-32-169 0z m0-75l169 0 0-32-169 0z m225 58l0 68-32 26 0-312-38 0 0 106-136 0 0-106-42 0 0 430 195 0 20 32-247 0 0-462-83 0 0-32 189 0 0 106 72 0 0-106 251 0 0 296z m117-218l-117 0 0 184 117 37z"/>
<glyph glyph-name="cs-documents-add-sticky-note" unicode="&#72;" d="M506 115c0 0-42 50-61 101-10 26-18 54-26 104l-32 0c10-43 19-83 31-112 17-45 56-99 64-112 0 0-26 0-64 0l-32 0 0-2c-108 0-264 2-264 2-15 0-26 14-45 88-19 70-32 184-34 197-1 1-1 3 0 3l277 0 0 32-240 0c0 0-18 0-40 0-2 0-5 0-8 0-19 0-32-16-32-32l0-333c0-27 21-51 42-51l336 0c28 0 36 24 36 53l0 11 56 0c21 0 40 27 40 42z m-122-62c0-5-2-21-21-21l-302 0c-15 0-29 8-29 21l0 177c3-19 8-38 13-54 21-75 37-112 77-112l262 0z m43 459c-46 0-85-38-85-85 0-46 39-85 85-85 47 0 85 37 85 85 0 48-38 85-85 85z m53-94l-43 0 0-44-18 0 0 44-43 0 0 17 43 0 0 43 18 0 0-43 43 0z"/>
<glyph glyph-name="cs-documents-client-review" unicode="&#74;" d="M346 494l-266 0c-18 0-32-14-32-32l0-430c0-18 14-32 32-32l347 0c18 0 32 14 32 32l0 339z m0-48l73-78-75 0 0 78z m-266-414l0 430 234 0 0-104c0-12 9-22 22-22l91 0 0-304z m118 240l176 0 0-32-176 0z m0-64l176 0 0-32-176 0z m0-64l176 0 0-32-176 0z m-48 128l32 0 0-32-32 0z m0-64l32 0 0-32-32 0z m0-64l32 0 0-32-32 0z"/>
<glyph glyph-name="cs-documents-dcdo" unicode="&#75;" d="M346 494l-266 0c-18 0-32-14-32-32l0-430c0-18 14-32 32-32l347 0c18 0 32 14 32 32l0 339z m0-48l73-78-75 0 0 78z m-266-414l0 430 234 0 0-104c0-12 9-22 22-22l91 0 0-304z m69 112l176 0 0-32-176 0z m0 64l176 0 0-32-176 0z m0 64l176 0 0-32-176 0z m192-128l32 0 0-32-32 0z m0 64l32 0 0-32-32 0z m0 64l32 0 0-32-32 0z"/>
<glyph glyph-name="cs-documents-new-call-report" unicode="&#76;" d="M80 224l256 0 0-32-256 0z m0-64l128 0 0-32-128 0z m0 128l256 0 0-32-256 0z m347 226c-46 0-85-39-85-85 0-47 39-85 85-85 47 0 85 37 85 85 0 48-38 85-85 85z m53-95l-43 0 0-43-18 0 0 43-43 0 0 18 43 0 0 43 18 0 0-43 43 0z m-101-94l0-293-347 0 0 430 293 0 14 32-307 0c-18 0-32-14-32-32l0-430c0-18 14-32 32-32l347 0c18 0 32 14 32 32l0 286z"/>
<glyph glyph-name="cs-documents-new-client-review" unicode="&#77;" d="M139 288l176 0 0-32-176 0z m0-64l176 0 0-32-176 0z m0-64l176 0 0-32-176 0z m-48 128l32 0 0-32-32 0z m0-64l32 0 0-32-32 0z m0-64l32 0 0-32-32 0z m336 354c-46 0-85-39-85-85 0-47 39-85 85-85 47 0 85 37 85 83 0 47-38 87-85 87z m53-95l-43 0 0-43-18 0 0 43-43 0 0 18 43 0 0 43 18 0 0-43 43 0z m-101-96l0-293-347 0 0 432 293 0 14 32-307 0c-18 0-32-14-32-32l0-430c0-18 14-32 32-32l347 0c18 0 32 14 32 32l0 286z"/>
<glyph glyph-name="cs-documents-new-dcdo" unicode="&#90;" d="M94 160l176 0 0-32-176 0z m0 64l176 0 0-32-176 0z m0 64l176 0 0-32-176 0z m192-128l32 0 0-32-32 0z m0 64l32 0 0-32-32 0z m0 64l32 0 0-32-32 0z m141 226c-46 0-85-39-85-85 0-47 39-85 85-85 47 0 85 37 85 83 0 47-38 87-85 87z m53-95l-43 0 0-43-18 0 0 43-43 0 0 18 43 0 0 43 18 0 0-43 43 0z m-101-96l0-293-347 0 0 432 293 0 14 32-307 0c-18 0-32-14-32-32l0-430c0-18 14-32 32-32l347 0c18 0 32 14 32 32l0 286z"/>
<glyph glyph-name="cs-documents-new-note" unicode="&#89;" d="M427 514c-46 0-85-39-85-85 0-47 39-85 85-85 47 0 85 37 85 83 0 47-38 87-85 87z m53-95l-43 0 0-43-18 0 0 43-43 0 0 18 43 0 0 43 18 0 0-43 43 0z m-101-96l0-293-347 0 0 432 293 0 14 32-307 0c-18 0-32-14-32-32l0-430c0-18 14-32 32-32l347 0c18 0 32 14 32 32l0 286z m-75-67l-192 0 0 64 192 0m-224 32l0-128 256 0 0 128z m0-224l256 0 0-32-256 0z m0 64l256 0 0-32-256 0z"/>
<glyph glyph-name="cs-documents-new-rop" unicode="&#88;" d="M427 514c-46 0-85-39-85-85 0-47 39-85 85-85 47 0 85 37 85 83 0 47-38 87-85 87z m53-95l-43 0 0-43-18 0 0 43-43 0 0 18 43 0 0 43 18 0 0-43 43 0z m-101-96l0-293-347 0 0 432 293 0 14 32-307 0c-18 0-32-14-32-32l0-430c0-18 14-32 32-32l347 0c18 0 32 14 32 32l0 286z m-237-1c-22 0-40 17-40 40 0 22 18 40 40 40 23 0 40-18 40-40 0-23-17-40-40-40z m64-82l-128 0 0-2c0 40 24 74 64 74 40 0 64-32 64-72z m-128-112l256 0 0-32-256 0z m0 64l256 0 0-32-256 0z"/>
<glyph glyph-name="cs-documents-new-strategic-review-and-report" unicode="&#87;" d="M427 514c-46 0-85-39-85-85 0-47 39-85 85-85 47 0 85 37 85 83 0 47-38 87-85 87z m53-95l-43 0 0-43-18 0 0 43-43 0 0 18 43 0 0 43 18 0 0-43 43 0z m-101-96l0-293-347 0 0 432 293 0 14 32-307 0c-18 0-32-14-32-32l0-430c0-18 14-32 32-32l347 0c18 0 32 14 32 32l0 286z m-301-195l256 0 0-32-256 0z m0 64l256 0 0-32-256 0z m149 110c0-41-33-75-75-75-42 0-75 34-75 75 0 42 35 74 77 74l0-75 73 0z"/>
<glyph glyph-name="cs-documents-new-task" unicode="&#86;" d="M427 512c-46 0-85-38-85-85 0-46 39-85 85-85 47 0 85 39 85 85 0 47-38 85-85 85z m53-93l-43 0 0-43-18 0 0 43-43 0 0 18 43 0 0 43 18 0 0-43 43 0z m-338-179l192 0 0-32-192 0z m0 82l192 0 0-32-192 0z m0-162l192 0 0-32-192 0z m-62 80l32 0 0-32-32 0z m0 82l32 0 0-32-32 0z m0-162l32 0 0-32-32 0z m126 322c28 0 52-23 56-55l-113 0c6 32 29 55 57 55z m173-151l0-299-347 0 0 414 90 0c-4-9-7-22-7-35l0-16 181 0 0 16c0 13-2 24-6 35l33 0 10 32-61 0c-16 21-40 36-67 36-27 0-51-13-67-36l-106 0c-18 0-32-14-32-32l0-414c0-18 14-32 32-32l347 0c18 0 32 14 32 32l0 286z"/>
<glyph glyph-name="cs-documents-note" unicode="&#85;" d="M352 494l-266 0c-17 0-32-14-32-32l0-430c0-18 15-32 32-32l348 0c17 0 32 14 32 32l0 339z m74-126l-76 0 0 78z m-85-32l16 0 0-64-192 0 0 64z m93-304l-348 0 0 430 234 0 0-94-186 0 0-128 256 0 0 96 44 0z m-300 112l256 0 0-32-256 0z m0 64l256 0 0-32-256 0z"/>
<glyph glyph-name="cs-documents-report" unicode="&#84;" d="M346 494l-266 0c-18 0-32-14-32-32l0-430c0-18 14-32 32-32l347 0c18 0 32 14 32 32l0 339z m0-48l73-78-75 0 0 78z m-266-414l0 430 234 0 0-104c0-12 9-22 22-22l91 0 0-304z m32 96l256 0 0-32-256 0z m0 64l256 0 0-32-256 0z m48 208l32 0 0-144-32 0z m48-32l32 0 0-112-32 0z m-96-48l32 0 0-64-32 0z"/>
<glyph glyph-name="cs-documents-report-new" unicode="&#83;" d="M427 514c-46 0-85-39-85-85 0-47 39-85 85-85 47 0 85 37 85 83 0 47-38 87-85 87z m53-95l-43 0 0-43-18 0 0 43-43 0 0 18 43 0 0 43 18 0 0-43 43 0z m-101-96l0-293-347 0 0 432 293 0 14 32-307 0c-18 0-32-14-32-32l0-430c0-18 14-32 32-32l347 0c18 0 32 14 32 32l0 286z m-294-195l256 0 0-32-256 0z m0 64l256 0 0-32-256 0z m48 208l32 0 0-144-32 0z m48-32l32 0 0-112-32 0z m-96-48l32 0 0-64-32 0z"/>
<glyph glyph-name="cs-documents-rop" unicode="&#82;" d="M346 494l-266 0c-18 0-32-14-32-32l0-430c0-18 14-32 32-32l347 0c18 0 32 14 32 32l0 339z m0-48l73-78-75 0 0 78z m-266-414l0 430 234 0 0-104c0-12 9-22 22-22l91 0 0-304z m112 290c-22 0-40 17-40 40 0 22 18 40 40 40 22 0 40-18 40-40 0-23-18-40-40-40z m64-82l-128 0 0-2c0 40 24 74 64 74 40 0 64-32 64-72z m-128-112l256 0 0-32-256 0z m0 64l256 0 0-32-256 0z"/>
<glyph glyph-name="cs-documents-sticky-note" unicode="&#81;" d="M506 114c0 0-42 49-61 100-19 52-21 170-21 170 0 14-10 26-24 29l0 1-358 0c-2 0-4 2-7 2-8 2-19 3-29-5-3-5-6-9-6-16l0-344c0-14 19-53 42-53l344 0c28 0 30 53 30 53l0 11 56 0c21 0 40 28 40 42l0 5z m-122-61c0-5-2-21-5-21l-334 0c-5-2-13 16-13 21l0 176c3-19 8-39 13-55 21-75 37-112 77-112l262 0z m85 41l-349 0c-14 0-26 15-45 88-19 71-32 184-33 197 0 0 0 2 1 3l351 0c0-14 1-126 22-179 18-45 46-88 58-104-4 0-4-5-5-5z"/>
<glyph glyph-name="cs-documents-strategic-review-and-report" unicode="&#80;" d="M346 494l-266 0c-18 0-32-14-32-32l0-430c0-18 14-32 32-32l347 0c18 0 32 14 32 32l0 339z m0-48l73-78-75 0 0 78z m-266-414l0 430 234 0 0-104c0-12 9-22 22-22l91 0 0-304z m48 96l256 0 0-32-256 0z m0 64l256 0 0-32-256 0z m149 110c0-41-34-75-75-75-42 0-74 35-74 75 0 40 34 76 75 76l0-76z"/>
<glyph glyph-name="cs-documents-task" unicode="&#79;" d="M192 238l192 0 0-32-192 0z m0 82l192 0 0-32-192 0z m0-162l192 0 0-32-192 0z m-62 80l32 0 0-32-32 0z m0 82l32 0 0-32-32 0z m0-162l32 0 0-32-32 0z m300 320l-105 0c-16 21-40 36-67 36-28 0-52-13-68-36l-108 0c-18 0-32-14-32-32l0-414c0-18 14-32 32-32l347 0c17 0 32 14 32 32l0 414c1 18-13 32-31 32z m-174 4c27 0 51-23 56-55l-114 0c7 31 31 55 58 55z m174-452l-348 0 0 416 89 0c-3-11-6-22-6-35l0-16 181 0 0 16c0 13-2 24-7 35l90 0 0-416z"/>
<glyph glyph-name="cs-espresso-cup" unicode="&#53;" d="M406 408l-376 0 72-304 218 0 34 144 52 0c42 0 76 34 76 75l0 8c0 43-34 77-76 77z m-113-272l-167 0-56 240 280 0z m157 187c0-24-20-43-44-43l-46 0 22 96 24 0c24 0 44-19 44-43z"/>
<glyph glyph-name="cs-expand" unicode="&#54;" d="M400 512l0-32 58 0-149-149 22-22 149 149 0-58 32 0 0 112z m-219-309l-149-149 0 58-32 0 0-112 112 0 0 32-58 0 149 149z m-69 277l0 32-112 0 0-112 32 0 0 58 149-149 22 22-149 149z m368-426l-149 149-22-22 149-149-58 0 0-32 112 0 0 112-32 0z"/>
<glyph glyph-name="cs-feedback" unicode="&#57;" d="M470 256l-22 0 0 32 22 0c5 0 10 5 10 10l0 171c0 6-5 11-10 11l-320 0c-6 0-11-5-11-11l0-37-32 0 0 37c0 24 19 43 43 43l320 0c23 0 42-19 42-43l0-171c0-23-19-42-42-42z m-374-254l0 94-51 0c-13 0-24 5-32 13-8 8-13 19-13 30l0 232c0 24 19 45 45 45l342 0c26 0 45-24 45-45l0-232c0-24-19-45-45-45l-126 0z m32 126l0-72 123 70 136 0c7 0 13 5 13 13l0 232c0 5-6 13-13 13l-342-2c-7 0-13-4-13-11l0-230c0-3 2-7 3-8 3-3 5-5 10-5z m-32 176l237 0 0-32-237 0z m0-64l237 0 0-32-237 0z"/>
<glyph glyph-name="cs-in-progress-small" unicode="&#44;" d="M248 432c-22 0-40-18-40-40 0-22 18-40 40-40 22 0 40 18 40 40 0 22-18 40-40 40m0-304c-13 0-24-11-24-24 0-13 11-24 24-24 13 0 24 11 24 24 0 13-11 24-24 24m144 152c-18 0-32-14-32-32 0-18 14-32 32-32 18 0 32 14 32 32 0 18-14 32-32 32m-288-16c-10 0-16-6-16-16 0-10 6-16 16-16 10 0 16 6 16 16 0 10-6 16-16 16m272 61c14 14 14 37 0 51-14 14-37 14-51 0-15-14-15-37 0-51 14-15 37-15 51 0m-243-165c-8-8-8-21 0-29 8-8 21-8 29 0 8 8 8 21 0 29-10 8-23 8-29 0m197 6c-12-11-12-28 0-40 11-11 28-11 40 0 11 12 11 29 0 40-12 12-29 12-40 0"/>
<glyph glyph-name="cs-intraday" unicode="&#46;" d="M322 445l-256 0 8-48 32 0-4 16 220 0m16-32l-304 0 8-48 32 0-4 16 268 0m144-32l-480 0 43-261c0-2 0-3 1-5 4-9 10-17 20-21 3-1 8-1 11-1l361 0c4 0 8 0 12 1 9 4 16 12 19 21 0 2 1 3 1 5l44 261z m-44-256l-361 0-37 224 437 0z m-4 451c-45 0-80-35-80-80 0-45 35-80 80-80 44 0 80 35 80 80 0 45-37 80-80 80z m25-128l-40 40 0 54 18 0 0-48 33-33z"/>
<glyph glyph-name="cs-location" unicode="&#47;" d="M261-2l-10 8c-8 7-185 159-185 306 0 107 88 195 195 195 107 0 195-88 195-195 0-149-178-299-186-306z m0 479c-90 0-163-74-163-163 0-114 126-239 163-272 37 33 163 158 163 272 0 89-72 163-163 163z m0-256c-55 0-101 45-101 101 0 54 45 100 101 100 56 0 101-44 101-100 0-56-45-101-101-101z m0 168c-37 0-69-31-69-69 0-37 30-69 69-69 37 0 69 31 69 69 0 38-31 69-69 69z"/>
<glyph glyph-name="cs-location-alert" unicode="&#58;" d="M261-2l-10 8c-8 7-185 159-185 306 0 107 88 195 195 195 107 0 195-88 195-195 0-149-178-299-186-306z m0 479c-90 0-163-74-163-163 0-114 126-239 163-272 37 33 163 158 163 272 0 89-72 163-163 163z m-21-93l32 0 0-128-32 0z m0-160l32 0 0-32-32 0z"/>
<glyph glyph-name="cs-message-history" unicode="&#62;" d="M91 346l90 0 0-31-90 0z m0-90l165 0 0-30-165 0z m285 240c-66 0-120-54-120-120 0-66 54-120 120-120 66 0 120 54 120 120 0 66-54 120-120 120m0-210c-50 0-90 40-90 90 0 50 40 90 90 90 50 0 90-40 90-90 0-50-40-90-90-90m30-120l-150 0-120-91 0 91-90 0 0 240 183 0c1 12 5 21 9 31l-192 0c-17-2-30-15-30-31l0-240c0-16 13-30 30-30l61 0 0-120 165 120 134 0c16 0 31 13 31 30l0 72c-10-4-19-8-31-9z m-16 269l-28 0 0-78 54-26 13 27-39 18z"/>
<glyph glyph-name="cs-mission-control" unicode="&#63;" d="M480 384l-90 0 0 96c0 18-14 32-32 32l-204 0c-18 0-32-14-32-32l0-96-90 0c-18 0-32-14-32-32l0-224c0-18 14-32 32-32l90 0 0-64c0-18 14-32 32-32l203 0c17 0 32 14 32 32l0 64 91 0c18 0 32 14 32 32l0 224c0 18-14 32-32 32z m-448-256l0 192 90 0 0-192z m326-96l-203 0 0 382 203 0z m122 96l-90 0 0 192 90 0z"/>
<glyph glyph-name="cs-monitoring" unicode="&#64;" d="M432 336l-22-22 41-42-133 0c-6 27-32 48-60 48-31 0-55-21-63-48l-69 0c-6 27-32 48-62 48-35 0-64-29-64-64 0-35 29-64 64-64 29 0 54 21 61 46l69 0c8-27 32-46 60-46 29 0 55 21 61 48l131 0-40-40 26-24 78 80z m-368-112c-18 0-32 14-32 32 0 18 14 32 32 32 18 0 32-14 32-32 0-18-14-32-32-32z m192 0c-18 0-32 14-32 32 0 18 14 32 32 32 18 0 32-14 32-32 0-18-14-32-32-32z"/>
<glyph glyph-name="cs-apps-1" unicode="&#93;" d="M96 224l208 0 0-32-208 0z m176 144l0-64-144 0 0 64 144 0m32 32l-208 0 0-128 208 0z m-208-256l208 0 0-32-208 0z m336-128l-403 0c-16 0-29 16-29 40l0 400c0 19 11 40 29 40l334 0c23 0 37-24 37-40l0-72 78 0c23 0 34-22 34-40l0-242c0-3 0-38-22-62-13-13-29-19-48-19-4 0-7 0-10 0z m-398 32l352 0c-18 24-18 56-18 56l0 352c0 2-3 8-6 8l-328 0c0-2-2-5-2-8l0-400c0-3 2-6 2-8z m366 304l0-248c0 0 0-27 14-42 7-6 16-9 28-9 11 0 19 3 25 9 15 15 15 40 15 40l0 242c0 3-2 6-4 8z"/>
<glyph glyph-name="cs-notebook" unicode="&#710;" d="M480 514l-432 0c-18 0-32-15-32-32l0-36-16 0 0-33 16 0 0-66-16 0 0-33 16 0 0-66-16 0 0-34 16 0 0-65-16 0 0-34 16 0 0-81c0-18 14-32 32-32l432 0c18 0 32 14 32 32l0 448c0 17-14 32-32 32z m-366-480l-64 0 0 81 32 0 0 34-32 0 0 65 32 0 0 34-32 0 0 66 32 0 0 33-32 0 0 66 32 0 0 33-32 0 0 34 65 0 0-446z m364 0l-331 0 0 446 331 0z m-70 280l-198 0 0 65 198 0m-232 34l0-133 264 0 0 133z m0-251l264 0 0-34-264 0z m0 65l264 0 0-33-264 0z"/>
<glyph glyph-name="cs-orderbook" unicode="&#96;" d="M314 338l8-31c0 0 56 15 110 0l8 31c-61 16-123 0-126 0z m-122-32l8 30c-62 18-123 0-126 0l8-30c1 0 57 14 110 0z m122-74l8-30c0 0 56 14 110 0l8 30c-61 16-123 0-126 0z m-236 0l8-30c0 0 56 14 111 0l8 30c-63 16-125 0-127 0z m429 210c-1 1-38 41-123 41-59 0-102-13-123-21 0 2-3 2-5 2-2 0-5 0-6-2-21 8-63 23-122 23-83 0-122-40-123-42-3-5-5-8-5-13l0-385c0-5 2-10 6-13 4-2 7-3 10-3 2 0 3 0 5 0 0 0 61 17 110 17 51 0 120-16 120-16 2 0 3 0 5 0 0 0 2 0 2 0 0 0 0 0 1 0 2 0 3 0 5 0 0 0 69 16 120 16 50 0 109-17 110-17 2 0 4 0 5 0 3 0 7 1 10 3 5 3 6 8 6 13l0 385c-3 5-5 8-8 12z m-475-376l0 358c11 8 40 29 96 29 56 0 96-13 112-19l0-367c-26 5-70 13-109 13-37-2-75-10-99-14z m448 0c-22 4-62 12-99 12-39 0-85-8-109-12l0 366c16 6 56 19 114 19 54 0 84-19 94-29z"/>
<glyph glyph-name="cs-prospect" unicode="&#126;" d="M432 458l-16 0 0-31 16 0c5 0 10 2 13 5 1 2 3 5 3 10 0 6-2 9-5 12-1 2-6 4-11 4z m-5 54c-46 0-85-38-85-85 0-46 39-85 85-85 47 0 85 37 85 85 0 48-38 85-85 85z m35-86c-3-5-6-8-11-10-5-2-9-3-16-3l-19 0 0-31-18 0 0 88 37 0c11 0 18-3 24-8 5-4 8-12 8-20 0-7-1-12-5-16z m-30 32l-16 0 0-31 16 0c5 0 10 2 13 5 1 2 3 5 3 10 0 6-2 9-5 12-1 2-6 4-11 4z m-176-228c-91 0-166-86-166-166 49 0 75 0 166 0 91 0 133 0 166 0 2 80-73 166-166 166z m0-134l-131 0c14 48 67 102 131 102 64 0 117-54 131-102z m62 262c0-1 0-4 0-6 0-35-28-64-64-64-35 0-64 29-64 64 0 35 31 64 64 64 23 0 42-11 53-29-5 18-6 34-3 47-13 9-30 14-48 14-53 0-96-43-96-96 2-53 43-96 96-96 46 0 85 34 94 77-8 3-22 9-32 25z"/>
<glyph glyph-name="cs-rearrange" unicode="&#92;" d="M226 416l224 0 0-32-224 0z m-80-144l224 0 0-32-224 0z m-80-144l224 0 0-32-224 0z m422 6l-38-40 0 226-32 0 0-227-42 41-22-22 56-58 22-22 78 80z m-422 58l32 0 0 226 38-40 22 22-78 80-22-22-56-58 22-22 42 41z"/>
<glyph glyph-name="cs-remove" unicode="&#57345;" d="M160 272l192 0 0-32-192 0z m96 192c115 0 208-93 208-208 0-115-93-208-208-208-115 0-208 93-208 208 0 115 93 208 208 208m0 32c-133 0-240-107-240-240 0-133 107-240 240-240 133 0 240 107 240 240 0 133-107 240-240 240z"/>
<glyph glyph-name="cs-selection" unicode="&#57351;" d="M210 293l104-242 52 56 112-107 29 30-109 116 55 49z m28-202l-192 0c-27 0-48 21-48 48l0 325c0 27 21 48 48 48l325 0c27 0 48-21 48-48l0-218-32 0 0 218c0 10-6 16-16 16l-325 0c-9 0-16-6-16-16l0-325c0-9 7-16 16-16l192 0z"/>
<glyph glyph-name="cs-sort" unicode="&#57354;" d="M18 176l272 0 0-32-272 0z m0 128l272 0 0-32-272 0z m80 128l272 0 0-32-272 0z m374-250l-38-40 0 226-32 0 0-227-42 41-22-22 56-58 22-22 78 80z"/>
<glyph glyph-name="cs-spriral" unicode="&#57356;" d="M248 22c-5 0-10 0-14 0-66 4-128 34-173 84-42 48-64 108-59 171 3 61 32 117 76 157 44 38 100 57 157 52 55-3 106-30 143-70 33-40 51-90 46-141-3-49-27-94-64-126-35-31-80-45-126-40-44 3-84 25-111 59-25 32-38 70-33 110 3 37 22 72 52 96 28 23 61 32 96 28 32-5 61-21 80-47 18-24 24-51 21-80-5-25-19-49-40-65-19-13-43-18-65-13-21 5-39 17-50 35-10 16-11 34-6 50 4 16 17 28 32 33 12 5 24 3 35-3 11-6 17-22 14-35-3-10-11-16-22-16-10 0-16 6-16 16 0 3 1 6 3 9 0 0-2 0-3 0-5-1-11-8-13-14-3-10 0-19 3-24 7-10 16-18 29-21 18-3 32 3 40 8 14 10 24 26 27 43 3 20-1 40-14 56-15 20-35 31-59 34-26 3-52-3-72-21-23-17-37-45-40-73-4-32 6-63 27-87 22-27 54-43 89-46 37-3 74 8 103 32 30 25 49 64 53 104 3 43-10 85-39 118-30 35-73 56-120 59-48 4-96-12-133-44-38-34-62-84-65-135-7-53 11-105 48-147 38-43 93-69 150-72 61-3 119 18 165 58 46 41 75 102 78 164 0 10 8 16 18 15 10 0 16-8 14-18-3-72-36-141-89-187-48-42-109-66-173-66z"/>
<glyph glyph-name="cs-stylebar-align-center" unicode="&#57359;" d="M64 216l384 0 0-32-384 0z m-64-112l512 0 0-32-512 0z m0 224l512 0 0-32-512 0z m64 112l384 0 0-32-384 0z"/>
<glyph glyph-name="cs-stylebar-align-left" unicode="&#57360;" d="M-2 208l384 0 0-32-384 0z m0-112l512 0 0-32-512 0z m0 224l512 0 0-32-512 0z m0 112l384 0 0-32-384 0z"/>
<glyph glyph-name="cs-stylebar-align-right" unicode="&#57361;" d="M128 208l384 0 0-32-384 0z m-128-112l512 0 0-32-512 0z m0 224l512 0 0-32-512 0z m128 112l384 0 0-32-384 0z"/>
<glyph glyph-name="cs-stylebar-bold" unicode="&#57362;" d="M112 430l144 0c29 0 51-1 66-4 14-4 27-8 38-16 11-8 21-18 29-31 8-13 11-27 11-43 0-18-5-34-14-48-10-14-23-26-39-32 23-6 40-18 51-34 13-16 18-33 18-56 0-16-3-33-11-48-8-14-18-28-32-38-13-10-31-16-50-18-13-1-41-1-89-3l-122 0z m64-64l0-80 56 0c29 0 46-1 54 0 13 2 23 5 31 13 8 8 11 16 11 29 0 11-3 21-10 27-6 7-16 11-27 13-8 2-29 0-64 0l-51 0z m0-144l0-96 75 0c27 0 43 0 51 2 12 2 20 6 28 14 6 8 9 18 9 31 0 11-3 21-8 27-5 8-13 13-22 18-10 3-32 4-66 4z"/>
<glyph glyph-name="cs-stylebar-bullets-list" unicode="&#57363;" d="M192 128l320 0 0-32-320 0z m0 288l320 0 0-32-320 0z m0-64l320 0 0-32-320 0z m0-160l320 0 0-32-320 0z m-192 224l96 0 0-96-96 0z m0-224l96 0 0-96-96 0z"/>
<glyph glyph-name="cs-stylebar-colour-text" unicode="&#57408;" d="M203 232l101 0-53 139z m-171 248l0-448 448 0 0 448z m318-376l-35 96-123 0-32-96-43 0 113 304 44 0 121-304z"/>
<glyph glyph-name="cs-stylebar-colour-underline" unicode="&#57364;" d="M48 45l416 0 0-32-416 0z m37 80l136 352 49 0 144-352-52 0-42 112-147 0-39-112z m102 144l120 0-62 171z"/>
<glyph glyph-name="cs-stylebar-italic" unicode="&#57365;" d="M195 80l74 352 46 0-73-352z"/>
<glyph glyph-name="cs-stylebar-justify" unicode="&#57366;" d="M224 448l32 0 0-384-32 0z m64-240l144 0 0-32-144 0z m0-112l224 0 0-32-224 0z m0 224l224 0 0-32-224 0z m0 128l144 0 0-32-144 0z m-166-112l-23-22 42-42-141 0 0-32 139 0-40-42 23-22 80 80z"/>
<glyph glyph-name="cs-stylebar-justify-all-lines" unicode="&#57367;" d="M0 210l512 0 0-32-512 0z m0-112l512 0 0-32-512 0z m0 224l512 0 0-32-512 0z m0 112l512 0 0-32-512 0z"/>
<glyph glyph-name="cs-stylebar-numbered-list" unicode="&#57368;" d="M94 107l0-21-76 0c1 8 3 15 8 23 4 8 12 16 24 27 9 10 16 16 17 19 3 5 5 10 5 13 0 5-2 8-3 11-2 3-7 3-11 3-5 0-8-1-12-4-3-4-4-8-4-15l-23 2c2 13 5 21 13 25 8 5 16 8 26 8 11 0 20-3 27-9 6-7 9-15 9-23 0-4-1-9-3-14-1-5-5-10-8-14-3-4-8-8-14-15-7-6-11-11-13-13-2-1-3-4-5-6l43 0z m98 13l320 0 0-32-320 0z m0 288l320 0 0-32-320 0z m0-64l320 0 0-32-320 0z m0-160l320 0 0-32-320 0z m-125 126l-21 0 0 84c-8-8-17-13-28-16l0 19c6 1 11 5 19 11 8 6 11 10 13 18l17 0z"/>
<glyph glyph-name="cs-stylebar-size" unicode="&#57369;" d="M112 48l0 240-96 0 0 32 224 0 0-32-96 0 0-240z m192 0l0 368-128 0 0 48 320 0 0-48-144 0 0-368z"/>
<glyph glyph-name="cs-stylebar-small-caps" unicode="&#57370;" d="M16 112l114 304 43 0 121-304-44 0-36 96-124 0-32-96z m85 128l101 0-52 139z m360-102c-13-12-27-20-39-24-12-5-25-7-40-7-24 0-41 7-54 18-13 11-19 25-19 45 0 11 3 20 8 28 5 8 11 16 19 21 8 5 16 10 26 11 6 2 17 4 32 5 28 3 51 8 65 13 0 5 0 8 0 10 0 14-3 25-9 32-10 8-24 12-42 12-18 0-30-3-38-9-8-7-15-16-18-32l-35 5c3 16 8 27 16 36 8 10 17 16 32 23 14 5 30 8 49 8 20 0 34-2 45-7 11-4 19-9 26-16 5-6 9-14 11-25 2-7 2-18 2-34l0-48c0-33 1-56 3-64 1-9 5-17 9-25l-38 0c-6 4-10 14-11 24z m3 81c-16-5-35-9-62-14-15-2-28-5-34-8-6-3-11-7-14-11-4-5-5-12-5-18 0-10 3-18 11-24 8-6 18-10 32-10 14 0 27 4 37 10 9 6 21 14 27 26 3 8 8 20 8 36z"/>
<glyph glyph-name="cs-stylebar-subscript" unicode="&#57371;" d="M6 128l138 184-122 168 56 0 64-88c13-19 23-32 29-42 8 13 18 24 29 39l72 91 51 0-125-166 135-186-59 0-90 128c-5 8-10 16-16 24-8-13-14-22-18-27l-88-125z m500-64l0-32-122 0c2 13 5 24 11 34 7 11 19 25 39 43 16 14 25 24 28 29 5 6 7 14 7 20 0 8-2 13-7 18-4 5-9 6-17 6-7 0-13-1-18-6-5-5-6-11-8-21l-33 3c1 20 8 32 19 40 11 8 24 13 40 13 17 0 32-5 41-14 10-10 15-21 15-35 0-8-2-16-5-23-3-6-8-14-14-22-5-5-12-13-23-23-11-9-17-16-21-19-3-3 0-11-1-11z"/>
<glyph glyph-name="cs-stylebar-superscript" unicode="&#57372;" d="M13 38l137 184-121 168 56 0 64-88c13-19 22-32 29-41 8 13 17 24 28 38l72 93 52 0-125-168 134-186-59 0-90 128c-4 8-9 16-16 24-8-12-14-22-17-27l-90-125z m486 288l0-32-128 0c2 13 5 24 11 34 7 11 20 26 39 43 16 15 25 24 29 29 4 6 6 14 6 21 0 8-2 13-6 17-5 5-10 7-18 7-6 0-13-2-18-7-4-4-6-11-8-20l-33 3c1 19 8 32 19 40 11 8 24 13 40 13 18 0 32-5 42-15 9-9 14-21 14-35 0-8-2-16-5-22-3-7-3-16-9-24-5-5-12-13-23-23-11-9-17-16-21-19-3-3-4-10-6-10z"/>
<glyph glyph-name="cs-stylebar-underline" unicode="&#57373;" d="M32 48l448 0 0-32-448 0z m320 448l48 0 0-203c0-37-6-67-14-90-8-22-24-40-47-54-22-15-51-21-88-21-35 0-64 6-86 18-21 12-34 30-43 52-8 24-10 55-10 95l0 203 48 0 0-203c0-32 0-56 6-72 7-16 15-27 29-35 15-8 32-13 53-13 37 0 64 8 80 24 16 16 26 48 26 94l0 205z"/>
<glyph glyph-name="cs-stylebar-underline-subscript" unicode="&#57374;" d="M0 56l272 0 0-32-272 0z m160 64l67 320-120 0 8 48 287 0-8-48-119 0-67-320z m184-96l48 74-45 70 43 0 24-37 24 37 42 0-45-69 48-75-43 0-27 40-27-40z"/>
<glyph glyph-name="cs-tea-cup" unicode="&#57375;" d="M427 392l-8 0 0 96-416 0 0-341c0-70 64-123 135-123l161 0c71 0 120 53 120 123l0 69 8 0c55 0 83 40 83 93 0 48-28 83-83 83z m-41-245c0-53-34-91-88-91l-162 0c-53 0-102 38-102 91l0 309 208 0 0-88-64-48 0-168 160 0 0 168-64 48 0 88 112 0z m-128 192l48-35 0-120-96 0 0 120z m169-91l-8 0 0 112 8 0c39 0 51-21 51-53 0-33-16-59-51-59z"/>
<glyph glyph-name="cs-timeline" unicode="&#57377;" d="M352 400l160 0 0-32-160 0z m0-64l160 0 0-32-160 0z m-352-128l160 0 0-32-160 0z m0-64l160 0 0-32-160 0z m272 77l0 69c27 6 48 32 48 62 0 30-21 54-48 62l0 98-32 0 0-98c-27-6-48-32-48-62 0-30 21-54 48-62l0-69c-27-7-48-32-48-63 0-30 21-54 48-62l0-96 32 0 0 98c27 6 48 32 48 62 0 30-21 54-48 61z m-48 131c0 18 14 32 32 32 18 0 32-14 32-32 0-18-14-32-32-32-18 0-32 14-32 32z m32-224c-18 0-32 14-32 32 0 18 14 32 32 32 18 0 32-14 32-32 0-18-14-32-32-32z"/>
<glyph glyph-name="cs-triangle-negative" unicode="&#57380;" d="M112 384l147-256 141 256z"/>
<glyph glyph-name="cs-triangle-positive" unicode="&#57381;" d="M253 384l-141-256 288 0z"/>
<glyph glyph-name="cs-upload-picture" unicode="&#57383;" d="M336 424l54-70c7-8 15-12 24-12l64 0 0-256-446 0 0 256 64 0c10 0 19 5 26 13l52 71 162 0m16 30l-192 0-64-82-64 0c-18 0-32-14-32-32l0-256c0-17 14-32 32-32l448 0c18 0 32 15 32 32l0 256c0 18-14 32-32 32l-64 0z m-96-155c38 0 69-31 69-69 0-38-31-69-69-69-38 0-69 31-69 69 0 38 31 69 69 69m0 35c-58 0-104-46-104-104 0-58 46-104 104-104 58 0 104 46 104 104 0 58-46 104-104 104z"/>
<glyph glyph-name="cs-user" unicode="&#57384;" d="M256 256c66 0 120 54 120 120 0 66-54 120-120 120-66 0-120-54-120-120 0-66 54-120 120-120m0 210c50 0 90-40 90-90 0-50-40-90-90-90-50 0-90 40-90 90 0 50 40 90 90 90m0-240c-115 0-210-95-210-210l420 0c0 115-95 210-210 210m-178-180c15 85 88 151 178 151 90 0 163-66 178-151z"/>
<glyph glyph-name="cs-view-grid" unicode="&#57387;" d="M128 272l112 0 0 112-112 0z m32 80l48 0 0-48-48 0z m112-80l112 0 0 112-112 0z m80 32l-48 0 0 48 48 0z m-224-176l112 0 0 112-112 0z m32 80l48 0 0-48-48 0z m112-80l112 0 0 112-112 0z m32 80l48 0 0-48-48 0z"/>
<glyph glyph-name="cs-weather-cloudy" unicode="&#57388;" d="M291 69l-201 0c-50 0-90 40-90 89 0 39 26 72 61 85 0 19 6 53 29 79 20 22 49 33 86 33 51 0 94-32 110-80 18 0 50-1 74-22 21-18 32-45 32-80 3-58-43-104-101-104z m-113 253c-28 0-50-8-63-23-24-25-21-65-21-69 0-8-4-16-12-17-28-5-48-29-48-56 0-32 25-58 57-58l202 0c40 0 72 32 72 72 0 26-7 45-21 56-24 21-62 15-62 15-8-2-18 4-20 12-9 40-44 68-84 68z m254-130c-10 0-16 6-16 16 0 10 6 16 16 16 26 0 48 21 48 48 0 22-16 43-40 46-8 2-14 8-13 18 0 2 3 35-17 58-12 12-29 19-53 19-34 0-63-24-69-58-2-8-10-14-19-13-8 2-15 10-13 20 10 48 51 83 101 83 32 0 57-10 77-29 20-22 25-51 25-67 32-11 53-40 53-75 0-47-37-82-80-82z"/>
<glyph glyph-name="cs-weather-party-cloudy" unicode="&#57389;" d="M174 381c-9 0-16 6-16 16l0 43c0 10 7 16 16 16 10 0 16-6 16-16l0-43c0-10-6-16-16-16z m-115-117l-43 0c-10 0-16 6-16 16 0 10 6 16 16 16l43 0c10 0 16-6 16-16 0-10-8-16-16-16z m34 83c-5 0-8 2-11 5l-31 30c-6 7-6 16 0 23 7 6 16 6 23 0l30-31c6-6 6-16 0-22-3-3-8-5-11-5z m166 0c-5 0-8 2-11 5-6 6-6 16 0 22l30 31c7 6 16 6 23 0 6-7 6-16 0-23l-31-30c-3-3-8-5-11-5z m-197-197c-4 0-8 2-11 5-6 7-6 16 0 23l31 30c6 6 16 6 22 0 6-6 6-16 0-22l-30-31c-4-3-8-5-12-5z m92 37c-2 0-4 0-5 0-42 11-71 50-71 93 0 53 44 96 96 96 39 0 72-22 88-56 4-8 0-18-8-21-44-21-46-73-46-73 0-8-5-15-13-16-11-2-21-8-29-16-3-5-8-7-12-7z m20 157c-35 0-64-29-64-64 0-26 16-48 39-59 8 8 17 13 29 16 3 21 14 57 48 81-12 16-31 26-52 26z m247-288l-175 0c-43 0-80 35-80 80 0 34 21 64 53 75 2 18 5 47 26 67 17 20 43 29 77 29 44 0 83-29 97-69 16 0 43-1 64-19 19-16 29-40 29-70 0-51-42-93-91-93z m-99 219c-24 0-42-6-53-19-21-22-18-56-18-58 0-8-5-16-13-17-22-3-40-24-40-47 0-25 21-48 48-48l175 0c32 0 59 28 59 60 0 20-6 36-18 46-20 18-52 11-52 11-8-1-18 5-20 13-4 35-33 59-68 59z"/>
<glyph glyph-name="cs-weather-rain" unicode="&#57390;" d="M291 117l-201 0c-50 0-90 40-90 89 0 39 26 72 61 85 0 19 6 53 29 79 22 20 51 32 88 32 51 0 94-32 110-80 18 0 50-2 74-23 20-17 32-45 32-80 1-56-45-102-103-102z m-113 253c-28 0-50-8-63-23-24-25-21-65-21-69 0-8-4-16-12-17-28-5-48-29-48-56 0-32 25-58 57-58l202 0c40 0 72 32 72 72 0 26-7 45-21 56-24 21-62 15-62 15-8-2-18 4-20 12-9 40-44 68-84 68z m254-130c-10 0-16 6-16 16 0 10 6 16 16 16 26 0 48 21 48 48 0 22-16 43-40 46-8 2-14 10-13 18 0 2 3 35-17 58-12 12-29 19-53 19-34 0-63-24-69-58-2-8-10-14-19-13-10 2-15 10-13 20 10 48 51 83 101 83 32 0 57-10 77-29 20-22 25-51 25-67 31-13 53-43 53-77 0-43-37-80-80-80z m-366-219c-5 0-8 1-12 5-6 6-6 16 0 22l34 34c6 6 16 6 22 0 7-7 7-16 0-23l-33-33c-3-4-8-5-11-5z m81 0c-5 0-8 1-11 5-6 6-6 16 0 22l34 34c6 6 16 6 22 0 6-7 6-16 0-23l-34-33c-3-4-6-5-11-5z m82 0c-5 0-8 1-11 5-7 6-7 16 0 22l33 34c7 6 16 6 23 0 6-7 6-16 0-23l-34-33c-2-4-6-5-11-5z m85 0c-5 0-8 1-12 5-6 6-6 16 0 22l34 34c6 6 16 6 22 0 7-7 7-16 0-23l-33-33c-3-4-8-5-11-5z"/>
<glyph glyph-name="cs-weather-snow" unicode="&#57391;" d="M291 110l-201 0c-50 0-90 40-90 90 0 38 26 72 61 85 0 19 6 53 29 78 22 23 51 34 88 34 51 0 94-32 110-80 18 0 50-2 75-23 21-17 32-44 32-80 0-57-46-104-104-104z m-113 255c-28 0-50-8-63-23-24-25-21-65-21-68 0-8-4-16-12-18-28-5-48-29-48-56 0-32 25-58 57-58l202 0c40 0 72 32 72 72 0 26-7 45-21 56-24 21-62 15-62 15-8-2-18 5-20 13-9 38-44 67-84 67z m254-130c-10 0-16 7-16 16 0 10 6 16 16 16 26 0 48 21 48 48 0 23-16 43-40 47-8 1-14 8-13 17 0 2 3 35-17 58-12 13-29 19-53 19-34 0-63-24-69-58-2-8-10-14-19-12-8 1-15 9-13 19 10 48 51 83 101 83 32 0 57-10 77-29 20-22 25-51 25-67 32-11 53-40 53-75 0-47-37-82-80-82z m-309-181c0-16-13-28-29-28-16 0-28 12-28 28 0 16 12 29 28 29 16 0 29-13 29-29z m107 0c0-16-12-28-28-28-16 0-29 12-29 28 0 16 13 29 29 29 16 0 28-13 28-29z m109 0c0-16-13-28-29-28-16 0-28 12-28 28 0 16 12 29 28 29 16 0 29-13 29-29z"/>
<glyph glyph-name="cs-weather-sun" unicode="&#57392;" d="M251 418c-9 0-16 6-16 16l0 64c0 9 7 16 16 16 10 0 16-7 16-16l0-66c0-8-8-14-16-14z m0-420c-9 0-16 7-16 16l0 66c0 10 7 16 16 16 10 0 16-6 16-16l0-66c0-9-8-16-16-16z m-174 245l-64 0c-10 0-16 7-16 16 0 10 6 16 16 16l65 0c10 0 16-6 16-16 0-9-8-16-17-16z m422 0l-65 0c-10 0-16 7-16 16 0 10 6 16 16 16l65 0c10 0 16-6 16-16 0-9-6-16-16-16z m-371 125c-5 0-8 2-11 5l-47 45c-6 6-6 17 0 24 7 6 16 6 23 0l46-47c7-6 7-16 0-22-3-3-8-5-11-5z m304-304c-5 0-8 2-11 5l-47 46c-6 7-6 16 0 23 7 6 16 6 23 0l46-47c7-6 7-16 0-22-3-3-8-5-11-5z m-56 304c-5 0-8 2-11 5-7 6-7 16 0 22l46 47c7 6 16 6 23 0 6-7 6-16 0-23l-47-46c-3-3-6-5-11-5z m-294-294c-5 0-8 1-12 4-6 7-6 16 0 23l47 46c6 7 16 7 22 0 7-6 7-16 0-22l-46-47c-3-3-7-4-11-4z m176 48c-77 0-138 62-138 137 0 77 62 138 138 138 76 0 137-63 137-138 0-75-62-137-137-137z m0 244c-60 0-106-48-106-105 0-58 48-106 106-106 57 0 105 48 105 106 0 57-48 105-105 105z"/>
<glyph glyph-name="cs-client-book-planning" unicode="&#57393;" d="M96 248l288 0 0-32-288 0z m0-64l288 0 0-32-288 0z m61 149c0-18-15-32-32-32-18 0-32 14-32 32 0 17 14 32 32 32 17 0 32-15 32-32z m317 113l-436 0c-17 0-32-14-32-32l0-315c0-17 15-32 32-32l434 0c18 0 32 15 32 32l0 315c2 18-13 32-30 32z m-4-348l-432 0 0 316 431 0 0-316z"/>
<glyph glyph-name="cs-widget" unicode="&#57394;" d="M122 32c0-18 14-32 32-32l203 0c17 0 32 14 32 32l0 448c0 18-15 32-32 32l-203 0c-18 0-32-14-32-32z m236 0l-203 0 0 382 203 0z"/>
<glyph glyph-name="cs-zodiac-dog" unicode="&#57395;" d="M486 370l-3 11-160 0 80 96c7 6 5 17-1 22-7 7-18 5-23-1l-144-172c-6-6-5-17 2-22 3-3 6-3 9-3 5 0 10 1 13 6l37 43 160 0c6-28 19-107 8-201-5-39-21-72-32-90l-37 34c-6 6-16 5-22-2-7-6-5-16 1-22l64-58 12 15c1 1 38 52 46 120 18 123-8 219-10 224z m-200-184l87 0 8 97-152-3 33-126c2-7 8-12 16-12 2 0 4 0 5 0 8 2 15 12 11 20z m-9 32l-8 32 75 1-3-33z m-32 259c6 6 5 17-2 22-6 7-17 5-22-1l-58-69c-21 30-40 43-41 45-8 4-18 3-23-4-5-8-3-17 3-22 0 0 18-14 39-45l-64-77c-7-6-5-17 1-22 4-3 7-3 10-3 5 0 10 1 13 6l56 67c8-16 16-36 22-60-40-88-160-156-161-157-8-5-12-15-7-23 3-4 8-8 15-8 3 0 4 0 8 2 4 3 102 58 155 136 6-38 8-85 1-139-3-37-17-59-27-71l-40 37c-6 7-16 5-22-1-7-7-5-16 1-23l61-54 11 8c2 1 42 30 50 101 11 134-14 222-45 278z"/>
<glyph glyph-name="cs-zodiac-dragon" unicode="&#57396;" d="M350 370c8 1 15 9 13 19-1 9-9 14-19 13l-120-24c6 36 11 76 11 118 0 10-6 16-16 16-8 0-16-6-16-16 0-45-5-86-13-125l-107-21c-8-1-14-9-13-19 2-8 8-13 16-13 2 0 2 0 4 0l92 18c-51-197-174-307-176-309-6-6-8-16-1-22 3-3 6-5 11-5 3 0 8 2 11 3 7 7 141 125 191 341z m146-202c-10 0-16-6-16-16 0-66-77-117-141-117-13 0-32 3-46 15-13 11-18 27-18 49l0 50c39 29 82 72 122 131 5 8 3 18-5 22-8 5-18 4-22-4-31-47-64-82-95-108l0 125c0 10-6 16-16 16-9 0-16-6-16-16l0-150c-46-34-81-47-83-47-8-3-13-11-10-20 2-7 8-12 16-12 2 0 4 0 5 0 3 0 32 12 74 37l0-27c0-32 9-58 29-74 17-14 40-22 67-22 80 0 173 66 173 149-2 11-10 19-18 19z m-190 301l67-40c3-2 5-2 8-2 5 0 11 3 14 8 5 8 2 18-5 23l-68 38c-8 5-18 2-23-5-5-6-1-17 7-22z"/>
<glyph glyph-name="cs-zodiac-horse" unicode="&#57397;" d="M338 283l24 232-220-16c-8-1-14-9-14-17 0-8 8-16 18-15l179 15-21-202-125-13 10 130c0 9-7 16-15 17-9 0-16-6-17-14l-11-168 316 32c-1-35-4-115-20-162-13-38-32-57-44-67l-41 40c-7 7-16 7-23 0-6-6-6-16 0-22l61-58 10 5c1 2 43 22 67 91 24 66 24 184 24 191l0 17z m44-101c-1 8-9 15-17 13l-333-48c-8-1-14-9-13-17 2-8 8-15 16-15 0 0 2 0 2 0l331 48c10 2 14 10 14 19z"/>
<glyph glyph-name="cs-zodiac-monkey" unicode="&#57398;" d="M211 464c7 6 7 16 0 22-6 7-16 7-22 0l-63-60c-9 22-16 38-16 40-4 8-12 12-22 8-8-4-11-13-8-21 0 0 10-21 21-53l-56-54c-7-7-7-16 0-23 3-3 8-5 11-5 5 0 8 2 11 5l45 43c10-27 18-57 26-88l-136-140c-7-7-7-16 0-23 3-3 6-5 11-5 5 0 8 2 11 5l122 125c4-26 6-51 6-74-2-52-16-96-24-118l-29 22c-6 5-17 5-22-3-5-6-5-17 3-22l61-48 8 19c1 3 32 64 35 150 3 72-24 164-45 226z m130 22c6 7 6 16 0 23-7 6-16 6-23 0l-142-141c-6-6-6-16 0-22 3-4 8-5 11-5 5 0 8 1 11 5l28 27 1-355c0-10 7-16 16-16 10 0 16 8 16 16l-1 385z m-8-46c1-8 9-14 19-13l38 7 0-44-99-16c-8-1-14-9-13-17 2-8 8-13 16-13 2 0 2 0 4 0l204 32c8 2 15 10 13 18-1 8-9 14-17 12l-74-11 0 79-75-15c-11-1-18-9-16-19z m62-291l106 22c8 2 14 11 13 19-2 8-12 15-20 13l-102-22c3 22 5 48 6 75l64 11c8 2 15 10 13 19-1 8-9 15-19 13l-104-19 11 18c5 8 2 17-5 22-8 5-17 2-22-5l-50-81c-4-8-1-18 5-23 3-1 5-1 8-1 5 0 11 3 15 8l16 27 35 6c0-29-3-54-8-77l-79-17c-8-2-14-11-12-19 1-8 8-13 16-13 1 0 1 0 3 0l64 14c-24-81-66-107-67-107-8-5-10-14-7-22 3-5 8-8 15-8 3 0 4 0 8 1 3 2 51 31 80 119l107-116c3-3 8-4 11-4 3 0 8 1 11 4 7 7 7 16 0 23z"/>
<glyph glyph-name="cs-zodiac-ox" unicode="&#57399;" d="M498 251l-221-29 0 76 157 20c8 2 14 10 14 18 0 8-10 14-18 14l-152-20 0 166c0 10-6 16-16 16-9 0-16-6-16-16l0-170-118-16 18 42c3 8 0 18-8 21-8 3-18 0-21-8l-53-112c-3-8 0-18 8-21 2-2 5-2 6-2 7 0 12 4 15 10l17 35 136 19 0-75-235-30c-8-2-14-10-14-18 1-8 8-14 16-14 0 0 1 0 1 0l229 29 0-170c0-10 7-16 16-16 10 0 16 6 16 16l0 174 226 29c8 2 14 10 14 18-1 9-9 16-17 14z"/>
<glyph glyph-name="cs-zodiac-pig" unicode="&#57411;" d="M493 349l-98-8c27 41 45 73 47 77 4 8 1 17-7 22-8 5-17 2-22-6 0-2-24-44-61-96l-27-4-2 53 39 5c8 2 14 10 14 18-2 8-10 14-18 14l-36-5-2 77c0 10-8 16-16 16-10 0-16-8-16-16l3-82-32-3c-8-1-14-9-14-17 1-8 8-15 16-15 0 0 1 0 1 0l31 3 1-51-108-11c-10 0-16-8-15-18 0-8 8-14 16-14 0 0 2 0 2 0l141 13c-42-56-96-117-152-149 1 10 1 18 3 27 3 63-23 147-45 207l70 65c7 7 7 16 2 23-6 6-16 6-22 1l-63-57c-8 20-14 35-16 36-5 8-14 12-22 8-8-3-11-12-8-20 0 0 9-20 19-48l-53-50c-6-6-6-16-1-22 3-4 8-5 11-5 3 0 8 1 11 5l45 40c9-26 19-55 27-84l-128-118c-8-6-8-16-2-22 4-4 8-5 12-5 3 0 8 1 11 5l115 105c3-21 6-41 5-61-3-51-19-104-31-131l-28 21c-7 5-18 3-23-3-5-7-3-18 3-23l61-46 8 18c2 1 19 43 31 96 30 14 62 35 91 62l0-133 166-38 0 214-129-6c27 30 52 62 75 93l123 11c10 0 16 8 14 17-1 8-9 15-17 15z m-98-304l-102 24 0 59 73 0c10 0 16 6 16 16 0 10-6 16-16 16l-73 0 0 21 102 5z"/>
<glyph glyph-name="cs-zodiac-rabbit" unicode="&#12344;" d="M315 197c-6-7-6-16 0-23l56-52c3-4 7-5 11-5 5 0 8 1 12 5 6 6 6 16 0 22l-56 53c-7 6-16 6-23 0z m195-50c-1 8-9 15-17 15-8-2-15-10-15-18 0 0 7-50-22-82-16-17-40-27-74-28-40 0-70 11-88 33-38 47-20 128-20 130 0 3 0 5 0 8l56 0 48 145-119-9 35 110-107-13 37 47c5 6 5 17-3 22-5 5-16 5-21-3l-110-138c-5-6-5-17 3-22 3-2 6-3 9-3 5 0 10 1 13 6l45 56 91 11-21-64c-1-4-1-8 2-12l-130-12 26-121 56 0c-26-55-75-123-174-173-8-3-12-13-7-21 3-6 8-9 15-9 1 0 4 0 6 1 115 58 168 139 194 202l25 0c-1-3-21-98 26-157 24-30 62-46 112-46 1 0 1 0 3 0 42 0 75 14 98 38 36 43 28 104 28 107z m-356 90l-13 61 77 6c-5-3-8-6-10-13 0-1-2-24-13-54z m75 69l104 8-26-77-77 0c10 30 12 49 12 53-2 6-7 12-13 16z"/>
<glyph glyph-name="cs-zodiac-rat" unicode="&#57401;" d="M325 315l46 176-144-21c-8-1-14-9-14-17 0-8 9-15 17-15l96 15-6-26-91-9c-8-2-15-8-13-18 2-8 8-14 16-14 0 0 2 0 2 0l78 8-13-50-185-14-12 35 61 11c8 2 15 10 13 19-2 10-10 15-19 13l-64-11-11 30 129 58c8 3 11 13 8 21-3 8-11 11-19 8l-157-69 48-149z m-205-206l-82-43 16 169c2 8-6 16-14 18-10 1-16-7-18-15l-20-227 134 71c8 4 11 14 6 22-4 6-14 10-22 5z m3 126l-35 15c-8 3-18 0-21-8-3-8 0-18 8-21l35-15c2-1 5-1 7-1 6 0 13 3 14 9 3 8 0 18-8 21z m0-67l-35 14c-8 4-18 0-21-8-3-8 0-17 8-20l35-15c2-1 5-1 7-1 6 0 13 3 14 9 3 8 0 18-8 21z m149-59l-82-43 16 169c2 8-6 16-14 18-10 1-16-7-18-15l-20-227 134 71c8 4 11 14 6 22-4 6-14 10-22 5z m-3 126l-35 15c-8 3-18 0-21-8-3-8 0-18 8-21l35-15c2-1 5-1 6-1 7 0 13 3 15 9 3 8 0 18-8 21z m0-67l-35 14c-8 4-18 0-21-8-3-8 0-17 8-20l35-15c2-1 5-1 6-1 7 0 13 3 15 9 3 8 0 18-8 21z m232-16c-8 3-18 0-21-8l-40-93c-11 5-29 16-45 37-61 75-57 184-56 186 0 9-6 16-16 16-9 0-16-7-16-16 0-5-5-122 64-207 35-43 74-53 75-53l13-3 51 120c4 8-1 18-9 21z"/>
<glyph glyph-name="cs-zodiac-rooster" unicode="&#57402;" d="M282 218l0 169 123 10-3-104-40-5c-8-2-16-8-15-18 2-8 8-16 18-14l69 6 4 170-108-10 46 64c5 7 3 18-3 23-7 5-18 3-23-3l-59-82c-1-2-1-3-1-5l-40-3 0-234 233 23c-1-26-6-72-19-107-11-28-21-45-29-55l-33 29c-7 6-18 5-23-2-6-6-5-17 2-22l56-46 9 8c4 1 26 20 48 78 21 56 23 133 23 136l0 18z m-98-48c3-4 8-5 11-5 3 0 8 1 11 5 7 6 7 16 0 22l-60 64c44 74 56 128 57 131l5 24-192-25c-8-2-14-10-13-20 0-8 8-14 18-12l145 19c-8-21-20-53-43-91l-61 64c-6 6-16 6-22 0-6-7-6-16 0-23l66-69c-26-38-60-80-106-123-6-6-6-16-2-22 4-3 8-5 12-5 3 0 8 2 11 5 46 41 80 85 107 121z m179 140c5 0 10 2 13 7 5 6 3 17-3 22l-47 34c-6 5-17 3-22-3-5-7-3-18 3-23l47-33c3-2 6-4 9-4z m59-161c-1 8-9 14-17 14l-245-29c-8-1-14-9-14-17 1-8 8-15 16-15 0 0 1 0 1 0l245 29c10 2 16 10 14 18z"/>
<glyph glyph-name="cs-zodiac-sheep" unicode="&#57403;" d="M467 232l-201-19 0 53 113 11c8 1 16 8 15 17-2 10-8 16-18 15l-110-10 0 58 113 11c8 2 16 8 15 18-2 9-8 14-18 14l-243-24c-10 0-16-8-15-16 0-8 8-14 16-14 0 0 2 0 2 0l98 9 0-59-101-10c-8-1-16-8-15-17 0-8 8-15 16-15 0 0 2 0 2 0l98 10 0-53-192-19c-8-2-16-8-15-18 0-8 8-14 16-14 0 0 2 0 2 0l189 18 0-165c0-10 6-16 16-16 9 0 16 6 16 16l0 168 204 19c8 2 16 8 15 18-2 9-8 14-18 14z m-187 176c3-2 6-3 8-3 5 0 10 3 13 8l51 77c5 6 3 17-5 22-8 5-17 3-22-5l-51-77c-4-8-2-17 6-22z m-77-10c3-1 7-3 10-3 5 0 9 2 13 7 4 6 4 17-4 22l-40 32c-6 5-17 5-22-3-5-7-5-18 3-23z"/>
<glyph glyph-name="cs-zodiac-snake" unicode="&#57404;" d="M309 483l73-46c4-2 7-3 8-3 5 0 12 3 13 8 5 8 3 17-5 22l-73 46c-7 5-18 2-21-4-5-8-3-18 5-23z m-103-289c-3 8-11 12-20 11-8-3-13-11-12-21l10-30-64-26 3 86 82 20 14 134-89-22 4 115c0 9-6 16-16 16-8 0-16-7-16-16l-4-125-79-19 0-128 74 19-3-93-84-33c-8-4-12-13-8-21 4-7 8-10 15-10 1 0 5 0 6 2l176 72 5-16c2-7 8-11 16-11 2 0 3 0 5 0 8 3 13 11 11 20z m-24 132l-6-67-51-11 3 66z m-132-96l0 63 46 13-2-64z m393 92c-3-8 2-18 10-21 8-3 17 1 21 9l32 93-242-27-27-74c-3-8 1-17 9-20 2 0 4-2 5-2 7 0 13 5 15 11l20 55 173 19z m56-175c-9 0-16-6-16-16 0-64-54-99-93-99-11 0-25 3-38 14-11 12-16 28-16 50 0 13 0 30 0 48l131 91c8 5 10 15 3 23-4 8-14 9-22 3l-112-79c2 39 2 72 2 74 0 10-7 16-16 16-10 0-16-6-16-16 0 0-2-53-4-101-1-3-1-6 0-8 0-19 0-38 0-53 0-30 10-54 26-72 16-16 37-24 61-24 61 0 125 53 125 132 1 9-7 17-15 17z"/>
<glyph glyph-name="cs-zodiac-tiger" unicode="&#57405;" d="M261 326c0-1 0-1 0 0 0-3 0-25 0-48l-66-14c-8-2-14-11-11-19 2-8 8-13 16-13 2 0 3 0 3 0l59 14c2-17 4-40 21-54 10-8 23-13 39-13 1 0 4 0 6 0 42 3 102 10 102 10l15 1 0 58c0 10-7 16-16 16-10 0-16-6-16-16l0-30c-21-2-59-7-88-8-10 0-18 0-23 4-8 7-8 23-9 37l0 2 78 17c8 2 15 12 11 20-3 8-11 14-19 11l-72-18c0 21 0 40 0 40 0 3 0 5-1 7l121 22 0-26c0-9 7-16 16-16 10 0 16 7 16 16l0 64-317-57 2-15c0 0 5-56-10-137-20-117-89-149-92-151-8-3-12-12-8-20 1-7 8-10 14-10 2 0 5 0 6 2 4 1 88 38 112 172 12 63 12 111 12 133z m235-200c0 10-8 16-16 16-10 0-16-8-16-16 0 0 2-49-24-76-10-10-22-15-37-15-24 0-41 7-49 19-16 24-5 69 0 84l9 25-113-13 0-14c0-14-4-56-26-80-11-13-27-18-46-18-10 0-16-6-16-16 0-9 6-16 16-16 28 0 51 10 68 28 26 27 32 67 34 88l35 4c-5-24-9-62 10-89 14-21 40-32 73-32 0 0 2 0 2 0 24 0 45 8 61 25 37 32 35 93 35 96z m-221 237c10 0 16 7 16 16l0 32 111 19c8 2 14 10 12 20-1 8-9 14-19 12l-105-17 0 51c0 10-7 16-16 16-8 0-16-6-16-16l0-117c1-8 8-16 17-16z"/>
<glyph glyph-name="cs-collapse-2" unicode="&#57406;" d="M133 202l40 41-109 0 0 26 109 0-40 41 17 20 74-74-74-74z m243 108l-40-41 109 0 0-26-109 0 40-41-18-20-73 74 73 74z"/>
<glyph glyph-name="cs-expand-2" unicode="&#57424;" d="M139 310l-40-41 109 0 0-26-109 0 40-41-17-20-74 74 74 74z m231-108l40 41-109 0 0 26 109 0-40 41 17 20 74-74-74-74z"/>
<glyph glyph-name="cs-order-execution" unicode="&#57425;" d="M419 338l24-24-152-149-59 59 22 22 37-35z m-149 9l24-24-152-149-83 82 24 22 59-57z m-256-251l480 0 0 320-480 0z m452 32l-421 0 0 256 421 0z"/>
<glyph glyph-name="cs-transaction" unicode="&#57426;" d="M138 274l-36-36 0 31c0 86 71 155 156 155 44 0 86-19 116-53l21 19c-35 40-85 63-137 63-101-2-184-83-184-186l0-32-37 37-19-19 49-50 19-19 71 70z m310 44l-19 20-71-71 20-19 35 35 0-30c0-87-71-155-155-155-45 0-87 19-117 52l-21-19c35-40 85-62 138-62 100 0 184 81 184 184l0 32 36-37 20 19z"/>
<glyph glyph-name="cs-move-large" unicode="&#57419;" d="M434 334l-24-22 41-40-147 0 0-32 147 0-41-40 24-22 78 78z m-228-62l-145 0 41 40-24 22-78-78 78-78 24 22-41 40 145 0z m106 138l22 24-78 78-78-78 22-24 40 41 0-147 32 0 0 147z m-40-349l0 147-32 0 0-147-40 41-22-24 78-78 78 78-22 24z"/>
<glyph glyph-name="cs-calendar" unicode="&#121;" d="M384 461l102 0 0-461-460 0 0 461 102 0 0 51 51 0 0-51 154 0 0 51 51 0z m-307-410l358 0 0 205-358 0z m51 359l-51 0 0-103 358 0 0 103-51 0 0-52-51 0 0 52-154 0 0-52-51 0z"/>
<glyph glyph-name="cs-dropdown-arrow-down" unicode="&#57417;" d="M113 358l-36-36 171-171 171 171-36 36-135-135-135 135"/>
<glyph glyph-name="cs-flyout-menu-arrow-right" unicode="&#36;" d="M154 129l36-36 171 171-171 171-36-36 135-135-135-135"/>
<glyph glyph-name="cs-dropdown-arrow-up" unicode="&#49;" d="M383 151l36 36-171 171-171-171 36-36 135 135 135-135"/>
<glyph glyph-name="cs-arrow-left" unicode="&#104;" d="M230 435l36-36-118-117 313 0 0-52-313 0 118-117-36-36-179 179 179 179"/>
<glyph glyph-name="cs-download" unicode="&#78;" d="M435 256l-36 36-117-118 0 312-52 0 0-312-117 118-36-36 179-179 179 179m-384-256l410 0 0 51-410 0z"/>
<glyph glyph-name="cs-edit" unicode="&#50;" d="M51 117l1 117 277 278 118-118-281-277z m278 323l-226-227 0-46 45 0 227 227z m-278-425l359 0 0 51-359 0z"/>
<glyph glyph-name="cs-star-empty" unicode="&#57357;" d="M256 74l-134-74-39 29 26 158-109 111 15 48 150 23 67 143 48 0 67-143 150-23 15-48-109-111 26-158-39-29z m-111-1l99 55 24 0 99-55-18 116 7 25 80 82-110 17-20 15-50 106-50-106-20-15-110-17 80-82 7-25z"/>
<glyph glyph-name="cs-star-filled" unicode="&#57358;" d="M256 74l-134-74-39 29 26 158-109 111 15 48 150 23 67 143 48 0 67-143 150-23 15-48-109-111 26-158-39-29z"/>
<glyph glyph-name="cs-home" unicode="&#42;" d="M282 53l51 0 0 52-51 0z m0 103l51 0 0 51-51 0z m-103 0l51 0 0 51-51 0z m-128 86l-15-15-36 37 256 248 254-261-37-36-12 13 0-226-51 0 0 279-154 159-154-149 0-289-51 0z"/>
<glyph glyph-name="cs-information-circle" unicode="&#45;" d="M230 128l52 0 0 154-52 0z m0 205l52 0 0 51-52 0z m282-77c0-141-115-256-256-256-141 0-256 115-256 256 0 141 115 256 256 256 141 0 256-115 256-256z m-51 0c0 113-92 205-205 205-113 0-205-92-205-205 0-113 92-205 205-205 113 0 205 92 205 205z"/>
<glyph glyph-name="cs-client" unicode="&#111;" d="M333 397c0 35-29 64-64 64-36 0-64-29-64-64 0-36 28-64 64-64 35 0 64 28 64 64z m51 0c0-64-52-115-115-115-64 0-115 51-115 115 0 63 51 115 115 115 63 0 115-52 115-115z m-307-397l0 90c0 77 63 140 141 140l76 0c78 0 141-63 141-140l0-90 51 0 0 90c0 106-86 192-192 192l-76 0c-106 0-192-86-192-192l0-90 51 0"/>
<glyph glyph-name="cs-sort-down" unicode="&#48;" d="M113 358l-36-36 171-171 171 171-36 36-135-135-135 135"/>
<glyph glyph-name="cs-sort-up" unicode="&#57416;" d="M383 151l36 36-171 171-171-171 36-36 135 135 135-135"/>
<glyph glyph-name="cs-previous" unicode="&#57414;" d="M361 399l-36 36-171-171 171-171 36 36-135 135 135 135"/>
<glyph glyph-name="cs-next" unicode="&#57415;" d="M154 129l36-36 171 171-171 171-36-36 135-135-135-135"/>
<glyph glyph-name="cs-tick" unicode="&#57409;" d="M87 258l-36-37 133-132 284 284-36 37-248-248-97 96"/>
<glyph glyph-name="cs-security-locked" unicode="&#57349;" d="M399 333l62 0 0-333-410 0 0 333 68 0 0 39c0 77 62 140 140 140 77 0 140-63 140-140z m-297-282l308 0 0 231-308 0z m68 321l0-39 177 0 0 39c0 49-39 89-88 89-49 0-89-40-89-89z m60-237c-15 9-25 25-25 44 0 28 23 51 51 51 28 0 51-23 51-51 0-19-10-35-25-44l0-58-52 0z"/>
<glyph glyph-name="cs-search" unicode="&#57348;" d="M221 122c-93 0-169 76-169 169 0 93 76 169 169 169 93 0 169-76 169-169 0-93-76-169-169-169z m291-85l-118 118c30 37 48 85 48 136 0 122-99 221-221 221-122 0-221-99-221-221 0-122 99-221 221-221 51 0 99 18 136 48l118-118z"/>
<glyph glyph-name="cs-preview" unicode="&#124;" d="M253 176c-29 0-53 25-53 56 0 30 24 55 53 55 30 0 54-25 54-55l46 0c0 55-44 101-100 101-55 0-99-46-99-101 0-56 44-102 99-102l0 46m246 56c-4-5-10-13-19-23-15-18-32-35-51-51-55-47-114-76-175-76-61 0-120 29-175 76-18 16-35 33-50 51-9 10-16 18-19 23l-10 14 10 13c3 5 10 13 19 24 15 17 32 34 50 51 55 47 114 76 175 76 61 0 120-29 175-76 19-17 36-34 51-51 9-11 15-19 19-24l9-13z m-54 21c-14 15-29 31-46 46-47 40-97 65-145 65-48 0-97-25-144-65-17-15-33-31-46-46-3-3-5-5-6-7 1-2 3-5 6-7 13-16 29-32 46-46 47-41 96-65 144-65 48 0 98 24 145 65 17 14 32 30 46 46 2 2 4 5 6 7-2 2-4 4-6 7z"/>
<glyph glyph-name="cs-plus" unicode="&#123;" d="M282 282l0 153-52 0 0-153-153 0 0-52 153 0 0-153 52 0 0 153 153 0 0 52-153 0"/>
<glyph glyph-name="cs-accordian-open" unicode="&#97;" d="M282 282l0 153-52 0 0-153-153 0 0-52 153 0 0-153 52 0 0 153 153 0 0 52-153 0"/>
<glyph glyph-name="cs-refresh-reload" unicode="&#57344;" d="M282 435c-102 0-185-79-192-179l-64 0 96-151 97 151-78 0c7 72 67 128 141 128 77 0 140-63 140-141 0-78-63-141-140-141l0-51c106 0 192 86 192 192 0 106-86 192-192 192"/>
<glyph glyph-name="cs-qr-code" unicode="&#168;" d="M0 307l0 205 205 0 0-205z m51 51l103 0 0 103-103 0z m51-256l103 0 0 103-103 0z m205 205l103 0 0 103-103 0z m0-307l0 205 205 0 0-205z m51 51l103 0 0 103-103 0z m-307 128l-51 0 0-179 179 0 0 51-128 0 0 128m410 282l0-128 51 0 0 179-179 0 0-51 128 0"/>
<glyph glyph-name="cs-scan" unicode="&#246;" d="M154 154l0 204 204 0 0-204z m51 51l102 0 0 102-102 0z m256 153l51 0 0 154-154 0 0-51 103 0 0-103m0-204l51 0 0-154-154 0 0 51 103 0 0 103m-410 0l-51 0 0-154 154 0 0 51-103 0 0 103m0 307l0-103-51 0 0 154 154 0 0-51-103 0"/>
<glyph glyph-name="cs-share" unicode="&#57352;" d="M274 3l-36 0c-27 7-46 32-46 61 0 27 18 51 43 60l0 112-111 0c-8-25-32-44-60-44-35 0-64 29-64 64 0 35 29 64 64 64 27 0 50-17 59-41l112 0 0 109c-25 9-43 33-43 60 0 35 29 64 64 64 35 0 64-29 64-64 0-27-18-51-43-60l0-109 112 0c9 24 32 41 59 41 29 0 54-20 61-46l0-36c-7-26-32-46-61-46-28 0-52 19-60 44l-111 0 0-112c25-9 43-33 43-60 0-29-19-54-46-61m-19 84c-12 0-21-9-21-21 0-12 9-21 21-21 11 0 21 9 21 21 0 12-10 21-21 21m191 191c-12 0-21-9-21-21 0-11 9-21 21-21 12 0 21 10 21 21 0 12-9 21-21 21m-383 0c-11 0-21-9-21-21 0-11 10-21 21-21 12 0 21 10 21 21 0 12-9 21-21 21m192 192c-12 0-21-10-21-21 0-12 9-21 21-21 11 0 21 9 21 21 0 11-10 21-21 21"/>
<glyph glyph-name="cs-end" unicode="&#57413;" d="M139 93l171 171-171 171-37-36 136-135-136-135z m181 342l51 0 0-333-51 0z"/>
<glyph glyph-name="cs-calendar-for-numbers" unicode="&#68;" d="M384 461l102 0 0-461-460 0 0 461 102 0 0 51 51 0 0-51 154 0 0 51 51 0z m-256-51l-51 0 0-359 358 0 0 359-51 0 0-52-51 0 0 52-154 0 0-52-51 0z"/>
<glyph glyph-name="cs-beginning" unicode="&#57412;" d="M373 93l-171 171 171 171 37-36-136-135 136-135z m-181 342l-51 0 0-333 51 0z"/>
<glyph glyph-name="cs-extended-navigation" unicode="&#55;" d="M51 307c28 0 51-23 51-51 0-28-23-51-51-51-28 0-51 23-51 51 0 28 23 51 51 51z m205 0c28 0 51-23 51-51 0-28-23-51-51-51-28 0-51 23-51 51 0 28 23 51 51 51z m205 0c28 0 51-23 51-51 0-28-23-51-51-51-28 0-51 23-51 51 0 28 23 51 51 51z"/>
<glyph glyph-name="cs-forecast-neutral" unicode="&#101;" d="M424 243l-133-133 30-31 192 192-189 190-31-31 135-136-428 0 0-51 424 0"/>
<glyph glyph-name="cs-forecast-down" unicode="&#94;" d="M381 106l-176 0 0-51 256 0 0 282-51-2 0-185-316 311-37-37 324-318"/>
<glyph glyph-name="cs-forecast-up" unicode="&#57420;" d="M406 381l0-176 51 0 0 256-282 0 2-51 185 0-311-316 37-37 318 324"/>
<glyph glyph-name="cd-trend-down" unicode="&#57421;" d="M384 205l-36 36-66-67 0 236-52 0 0-236-66 67-36-36 128-128 128 128"/>
<glyph glyph-name="cd-trend-up" unicode="&#57422;" d="M128 282l36-36 66 66 0-235 52 0 0 235 66-66 36 36-128 128-128-128"/>
<glyph glyph-name="cs-bookmark" unicode="&#122;" d="M79 460l0-368 171 158 171-158 0 368z m394-487l-223 206-223-206 0 539 446 0z"/>
<glyph glyph-name="cta-arrow" unicode="&#57423;" d="M282 435l-36-36 118-117-313 0 0-52 313 0-118-117 36-36 179 179-179 179"/>
<glyph glyph-name="chevron-l" unicode="&#41;" d="M361 399l-36 36-171-171 171-171 36 36-135 135 135 135"/>
<glyph glyph-name="cs-alert-circle" unicode="&#57418;" d="M230 428l52 0 0-241-52 0z m26 32c-112 0-204-92-204-204 0-112 92-204 204-204 112 0 204 92 204 204 0 112-92 204-204 204m0-459c-141 0-255 114-255 255 0 141 114 255 255 255 141 0 255-114 255-255 0-141-114-255-255-255m-26 137l52 0 0-52-52 0z"/>
<glyph glyph-name="cs-alert-triangle" unicode="&#102;" d="M88 84l336 0-168 294z m421-50l-507 0 254 444z m-279 276l52 0 0-146-52 0z m0-172l52 0 0-38-52 0z"/>
<glyph glyph-name="cs-portfolio" unicode="&#35;" d="M77 486l358 0 0-77 26 0 0-76 51 0 0-51 0 0-51-252 0-4-1 0 0 0-1 0-408 0 0 5-51 251 0 0 0 51 51 0 0 76 26 0z m51-77l256 0 0 26-256 0z m-26-76l308 0 0 25-308 0z m-49-51l41-205 324 0 42 205z"/>
<glyph glyph-name="cs-heart" unicode="&#57427;" d="M85 192l170-128 167 124c24 21 38 50 38 82 0 60-49 108-108 108-26 0-57-12-77-29l-19-16-19 15c-25 21-48 30-77 30-60 0-109-48-109-108 0-29 12-57 33-77z m170-192l-206 155-9 9 0 0c-25 28-40 66-40 106 0 88 72 160 160 160 35 0 68-12 96-32 27 20 60 32 96 32 88 0 159-72 159-160 0-48-21-92-58-123l-3-2z"/>
<glyph glyph-name="cs-preview-off" unicode="&#57428;" d="M256 209c-30 0-54 24-54 55 0 31 24 55 54 55 30 0 54-24 54-55l46 0c0 56-45 101-100 101-55 0-100-45-100-101 0-56 45-101 100-101z m191 44c-14-16-29-32-46-46-48-41-97-65-145-65-48 0-97 24-145 65-17 14-32 30-46 46-2 2-4 5-6 7 2 2 4 4 6 6 14 16 29 32 46 47 48 40 97 64 145 64 48 0 97-24 145-64 17-15 32-31 46-47 2-2 4-4 6-6-2-2-4-5-6-7z m53 20c-3 5-9 13-18 24-16 17-32 34-51 50-8 8-17 14-25 21l102 100-36 36-111-108c-34 17-69 27-105 27-61 0-120-28-175-76-19-16-35-33-51-50-8-11-15-19-18-24l-10-13 10-14c3-5 10-13 18-24 16-17 32-34 51-50 10-9 20-16 30-24l-107-104 36-36 116 113c32-16 66-25 100-25 61 0 120 28 175 76 19 16 35 33 51 50 9 11 15 19 18 24l10 14z"/>
<glyph glyph-name="cs-accordian-close" unicode="&#98;" d="M77 205l358 0 0 51-358 0z"/>
<glyph glyph-name="cs-arrow-right" unicode="&#105;" d="M294 384l-35-36 66-66-235 0 0-52 235 0-66-66 35-36 128 128z"/>
<glyph glyph-name="cs-collaboration" unicode="&#66;" d="M504 154l0-148-45 0 0 148c0 58-47 106-105 106-58 0-106-48-106-106l0-148-44 0 0 148c0 14 1 27 5 40-14 20-36 30-67 30-49 0-89-40-89-89l0-129-45 0 0 129c0 73 60 133 134 133 35 0 65-10 87-30 27 40 73 66 125 66 82 0 150-67 150-150m-150 307c-29 0-52-23-52-52 0-29 23-52 52-52 29 0 52 23 52 52 0 29-23 52-52 52m0-149c-54 0-97 44-97 97 0 53 43 97 97 97 53 0 96-44 96-97 0-53-43-97-96-97m-212 94c-24 0-43-19-43-42 0-24 19-43 43-43 23 0 42 19 42 43 0 23-19 42-42 42m0-129c-48 0-87 39-87 87 0 48 39 87 87 87 48 0 87-39 87-87 0-48-39-87-87-87"/>
<glyph glyph-name="cs-audio-on" unicode="&#108;" d="M256 448c-35 0-64-28-64-61l0-131c0-34 29-61 64-61 35 0 64 27 64 61l0 131c0 33-29 61-64 61m0-304c-63 0-115 50-115 112l0 131c0 62 52 112 115 112 64 0 115-50 115-112l0-131c0-62-51-112-115-112m180 147l0-50c0-81-67-147-154-158l0-32 70 0 0-51-192 0 0 51 70 0 0 32c-87 11-154 77-154 158l0 50 52 0 0-50c0-60 57-108 128-108 71 0 129 48 129 108l0 50z"/>
<glyph glyph-name="cs-call-active" unicode="&#119;" d="M329 306c3-18-10-34-27-36-17-2-33 10-35 27-2 18 10 34 27 36 17 2 33-10 35-27m79 73c3-17-10-33-27-35-17-2-33 10-35 27-2 17 10 33 27 35 17 3 33-9 35-27m79 74c2-17-10-33-27-35-17-3-33 10-35 27-2 17 10 33 27 35 17 2 33-10 35-27m-102-394c-2 0-5-1-10-3-11-3-26-4-42-2-50 7-109 38-176 105-67 66-98 125-103 174-2 16-1 30 2 42 2 4 3 7 4 9l53 54 75-76-43-43-2-6c0-1 0-1 0-1 0-1 0-1-1-1 0-1 0-1 0-3-1-2-1-5-1-8 0-8 1-17 4-26 6-24 22-51 50-78 27-27 54-44 78-51 17-5 30-5 39-3l7 2 44 44 75-75z m-22 201l-68-68c-2 1-4 1-7 2-16 5-35 17-57 38-22 22-33 40-37 56-1 2-1 4-1 6l68 68-148 148 0 0-92-93-4-4c-10-17-19-46-14-86 7-61 43-130 118-205 74-74 144-111 206-118 40-5 69 2 86 13l3 1 2 2 74 75 18 18z"/>
<glyph glyph-name="cs-call-hangup" unicode="&#118;" d="M372 55l0 47-3 5c0 0 0 0 0 1 0 0 0 0 0 0-1 1-1 1-2 3-1 2-3 4-5 6-5 5-11 10-19 14-19 12-52 24-88 25-35 1-67-10-87-21-14-7-22-16-27-23l-3-5 0-52-85 0-1 62c1 2 2 4 4 8 6 9 14 19 26 28 36 27 88 42 173 41 86-2 135-12 171-41 11-10 19-20 25-29 2-4 3-6 4-8l0-61z m138 60l-1 5c-4 18-17 42-46 65-44 36-111 58-207 61-96 1-164-18-208-52-29-22-43-45-47-63l-1-2 0-3 0-96 1-27 189 0 0 87c1 1 3 2 5 4 14 7 33 11 61 10 28 0 47-5 59-13 3-1 4-2 6-3l0-88 189 0z"/>
<glyph glyph-name="cs-call-lost" unicode="&#117;" d="M383 57c-2 0-5-1-9-3-12-3-26-4-43-2-45 6-97 32-156 85l38 39c20-17 40-28 58-33 17-5 30-5 39-3l7 2 44 44 75-75z m-331 274c-2 16-1 30 3 42 1 4 2 7 3 9l53 53 76-75-44-43-2-6 0-1c0-1 0-1 0-1-1-2-1-2-1-3 0-3 0-5-1-8 0-8 1-17 4-26 5-19 16-39 34-60l-38-38c-55 59-82 112-87 157z m309-73l-68-68c-2 1-4 1-7 2-11 3-23 10-37 20l216 217-36 36-216-217c-11 14-18 26-21 37-1 3-1 5-1 7l68 68-148 148-92-93-3-4c-11-17-19-46-15-86 6-56 38-119 101-188l-93-93 36-37 94 94c67-61 129-93 186-99 40-5 69 2 86 13l3 1 77 77 17 18z"/>
<glyph glyph-name="cs-call-missed" unicode="&#116;" d="M319 144l-7-2c-9-2-22-2-39 3-24 7-51 24-78 51-28 27-44 54-51 78-2 9-3 18-3 26 0 3 0 6 1 8 0 2 0 2 0 3 1 0 1 0 1 1 0 0 0 0 0 1l2 6 43 43-75 76-53-54c-1-2-2-5-4-9-3-12-4-26-2-42 5-49 36-107 103-174 67-67 126-98 176-105 16-2 31-1 42 2 5 2 8 3 10 3l53 54-75 75z m-125 144c4-16 15-34 37-56 22-21 41-33 57-38 3-1 5-1 7-2l68 68 147-147-18-18-74-75-2-2-3-1c-17-11-46-18-86-13-62 7-132 44-206 118-75 75-111 144-118 205-5 40 4 69 14 86l4 4 92 93 148-148-68-68c0-2 0-4 1-6z m263 133l47-44-35-37-50 46-50-46-34 37 47 44-47 44 34 38 50-47 50 47 35-38z"/>
<glyph glyph-name="cs-comment" unicode="&#61;" d="M52 209l272 0 68-65 0 65 68 0 0 229-408 0z m390-186l-139 135-302 0 0 331 510 0 0-331-69 0z m-346 324l319 0 0 51-319 0z m0-95l319 0 0 51-319 0z"/>
<glyph glyph-name="cs-group" unicode="&#57431;" d="M379 151c1-5 2-11 2-16l0-135-42 0 0 135c0 36-29 65-63 65l-38 0c-35 0-63-29-63-65l0-135-42 0 0 135c0 4 0 9 1 14-10 10-23 16-37 16-31 0-56-27-56-60l0-81-40 0 0 81c0 56 43 102 96 102 19 0 36-6 51-16 18 31 52 53 90 53l38 0c37 0 70-21 89-52 14 10 32 16 50 16 53 0 96-46 96-102l0-81-40 0 0 81c0 33-25 60-56 60-13 0-26-6-36-15z m-126 214c-22 0-40-18-40-41 0-23 18-41 40-41 22 0 40 18 40 41 0 23-18 41-40 41m0-126c-45 0-82 38-82 85 0 47 37 85 82 85 45 0 81-38 81-85 0-47-36-85-81-85m-159 58c-14 0-25-11-25-25 0-14 11-25 25-25 13 0 24 11 24 25 0 14-11 25-24 25m0-92c-36 0-65 30-65 67 0 37 29 67 65 67 35 0 64-30 64-67 0-37-29-67-64-67m300 67c0-14 11-25 24-25 14 0 25 11 25 25 0 14-11 25-25 25-13 0-24-11-24-25m-40 0c0 37 29 67 64 67 36 0 65-30 65-67 0-37-29-67-65-67-35 0-64 30-64 67"/>
<glyph glyph-name="cs-filter" unicode="&#33;" d="M404 387c-21 0-38 17-38 39 0 21 17 38 38 38 21 0 38-17 38-38 0-22-17-39-38-39z m81 61c-9 36-42 62-81 62-39 0-72-26-81-62l-323 0 0-45 323 0c9-35 42-62 81-62 39 0 72 27 81 62l27 0 0 45z m-377-230c-21 0-39 18-39 39 0 21 18 38 39 38 21 0 38-17 38-38 0-21-17-39-38-39z m81 60c-9 37-42 63-81 63-39 0-72-26-82-63l-26 0 0-44 27 0c10-36 42-62 81-62 38 0 71 26 81 62l323 0 0 44z m133-230c-21 0-39 17-39 38 0 22 18 39 39 39 21 0 38-17 38-39 0-21-17-38-38-38z m81 61c-10 35-42 62-81 62-39 0-72-27-82-62l-240 0 0-45 240 0c10-36 43-62 82-62 39 0 71 26 81 62l109 0 0 45z"/>
<glyph glyph-name="cs-flag" unicode="&#34;" d="M358 486l52 0 0-281-359 0 0-205-51 0 0 486z m-307-230l307 0 0 179-307 0z"/>
<glyph glyph-name="cta-arrow-back" unicode="&#57432;" d="M230 77l36 36-118 117 313 0 0 52-313 0 118 117-36 36-179-179z"/>
<glyph glyph-name="cs-global" unicode="&#39;" d="M431 140c-11 11-28 20-49 27 4 21 7 43 8 65l74 0c-4-33-15-65-33-92z m-91-78c12 17 22 39 31 63 17-6 28-13 33-19-19-19-40-34-64-44z m-64 122l0 48 71 0c-1-19-4-37-8-54-18 3-40 5-63 6z m0-125l0 81c19-1 37-2 52-5-13-38-32-65-52-76z m0 253c24 1 47 4 67 10 2-15 3-30 4-46l-71 0z m0 146c22-13 44-47 58-94-17-4-36-7-58-8z m128-56c-4-7-14-16-29-23-8 24-17 46-28 64 21-10 41-24 57-41z m60-126l-74 0c0 21-2 40-5 59 20 9 36 20 47 33 17-27 28-58 32-92z m-232 80c-21 2-40 5-56 10 13 46 34 79 56 92z m0-80l-70 0c0 17 2 32 4 47 20-5 43-9 66-10z m0-93c-21 0-43-3-63-7-4 18-6 36-7 56l70 0z m0-124c-19 11-38 38-51 75 15 3 32 5 51 6z m-125 44c5 6 15 13 32 20 8-24 18-44 30-61-23 10-44 24-62 41z m-62 129l73 0c2-23 4-46 9-67-20-8-36-17-48-29-18 28-31 61-34 96z m34 139c11-13 26-24 45-33-3-19-5-40-6-62l-73 0c3 35 15 67 34 95z m82 72c-10-17-19-38-26-61-14 8-24 16-28 23 16 15 34 28 54 38z m100 65c-2 0-4 0-7 0-2 0-5 0-7 0-137-3-247-116-247-254 0-140 114-254 254-254 140 0 254 114 254 254 0 138-110 251-247 254z"/>
<glyph glyph-name="cs-graph" unicode="&#40;" d="M205 512l153 0 0-307 103 0 0-205-461 0 0 256 102 0 0 77 103 0z m51-179l0-282 51 0 0 410-51 0z m-102-282l51 0 0 231-51 0z m-103 0l51 0 0 154-51 0z m307 0l52 0 0 103-52 0z"/>
<glyph glyph-name="cs-in-progress-large" unicode="&#43;" d="M68 240c0-14-11-24-24-24-14 0-25 10-25 24 0 13 11 24 25 24 13 0 24-11 24-24z m64-133c0-19-15-34-34-34-18 0-33 15-33 34 0 18 15 33 33 33 19 0 34-15 34-33z m148-65c0-22-18-39-39-39-22 0-40 17-40 39 0 21 18 39 40 39 21 0 39-18 39-39z m146 56c0-27-22-49-49-49-27 0-49 22-49 49 0 27 22 49 49 49 27 0 49-22 49-49z m67 135c0-29-24-52-53-52-29 0-52 23-52 52 0 29 23 52 52 52 29 0 53-23 53-52z m-45 140c0-31-25-56-56-56-31 0-56 25-56 56 0 31 25 56 56 56 31 0 56-25 56-56z m-139 69c0-37-30-67-67-67-37 0-67 30-67 67 0 37 30 67 67 67 37 0 67-30 67-67z"/>
<glyph glyph-name="cs-loudspeaker" unicode="&#37;" d="M55 177l161 0 28-21 0 200-44-32-145 0z m239-120l-95 70-194 0 0 247 178 0 111 81z m88 87l-46 19c39 95 1 171 1 172l45 23c2-4 48-99 0-214z m84-69l-45 22c80 165 4 298 1 304l43 26c4-7 93-161 1-352z"/>
<glyph glyph-name="cs-mail" unicode="&#59;" d="M0 77l512 0 0 358-512 0z m104 307l304 0-152-123z m-54-20l206-155 206 155 0-236-412 0z"/>
<glyph glyph-name="cs-market" unicode="&#60;" d="M114 271l-64-252-49 13 90 358 124-172 87 130 74-78 64 228 50-14-89-314-92 96-93-138z"/>
<glyph glyph-name="cs-notifications" unicode="&#95;" d="M105 113c15 28 25 66 36 108 28 104 53 178 122 178 71 0 98-74 129-180 12-41 23-78 39-106z m163-68c-14 0-28 8-35 21l70 0c-7-13-20-21-35-21z m169 187c-24 79-52 174-125 204 0 29-20 52-44 52-23 0-42-22-44-49-79-24-105-124-127-206-15-55-30-112-54-124l0-42 145 0c9-39 42-67 80-67 39 0 71 28 80 67l133 0 13 0 0 42c-25 12-41 69-57 123z"/>
<glyph glyph-name="cs-play" unicode="&#57430;" d="M256 462c-113 0-206-93-206-206 0-113 93-206 206-206 114 0 206 93 206 206 0 113-92 206-206 206m0-455c-137 0-249 112-249 249 0 137 112 249 249 249 137 0 249-112 249-249 0-137-112-249-249-249m-39 315l0-132 113 66z m-44-207l0 282 244-141z"/>
<glyph glyph-name="cs-security-unlocked" unicode="&#57350;" d="M102 51l308 0 0 231-308 0z m75 356l-49 16c21 52 71 89 131 89 77 0 140-63 140-140l0-39 62 0 0-333-410 0 0 333 296 0 0 39c0 49-39 89-88 89-37 0-69-23-82-54z m53-272l0-58 52 0 0 58c15 9 25 25 25 44 0 28-23 51-51 51-28 0-51-23-51-51 0-19 10-35 25-44z"/>
<glyph glyph-name="cs-settings" unicode="&#57407;" d="M134 87l52-27 28 40 14-2c20-4 40-4 60 0l13 3 30-39 51 28-18 46 9 10c10 11 18 22 25 35 7 13 12 27 15 42l3 14 48 11-6 58-50 2-6 12c-7 18-18 34-32 48l-9 10 17 47-51 27-29-41-14 2c-19 4-40 4-59 0l-14-3-30 40-50-28 18-46-10-10c-10-11-18-23-25-35-7-14-12-28-15-42l-3-14-48-11 6-58 49-2 6-13c8-18 19-34 32-48l10-10z m65-83l-119 63 21 56c-10 12-19 25-26 39l-60 1-14 134 59 14c4 14 9 27 16 40 6 12 14 23 22 34l-22 56 118 66 36-49c16 2 32 2 48 0l35 50 119-63-21-57c10-12 18-24 25-37l61-2 14-134-59-14c-4-14-9-28-16-41-6-11-14-23-22-33l22-57-117-65-36 48c-17-2-33-2-49 0z m57 322c-26 0-50-14-62-37-9-17-10-36-5-54 6-17 18-32 34-41 11-5 22-8 33-8 26 0 50 14 62 37 18 34 5 77-29 95-10 5-21 8-33 8m0-176c-17 0-34 4-49 12-25 14-44 36-52 63-8 27-6 55 7 80 19 35 55 57 94 57 17 0 34-4 50-12 51-28 71-92 44-144-19-34-55-56-94-56"/>
<glyph glyph-name="cs-sort-2" unicode="&#57355;" d="M0 292l36-36 66 67 0-236 52 0 0 236 66-67 36 36-128 128z m512-72l-36 36-66-67 0 236-52 0 0-236-66 67-36-36 128-128z"/>
<glyph glyph-name="cs-time" unicode="&#57376;" d="M256 466c-116 0-210-94-210-210 0-116 94-210 210-210 116 0 210 94 210 210 0 116-94 210-210 210m0-463c-140 0-253 113-253 253 0 140 113 253 253 253 140 0 253-113 253-253 0-140-113-253-253-253m26 256l83-71-33-39-102 87 0 193 52 0z"/>
<glyph glyph-name="cs-transfer" unicode="&#57378;" d="M307 512l-36-36 67-66-236 0 0-52 236 0-67-66 36-36 128 128z m-201-384l128-128 36 36-67 66 236 0 0 52-236 0 67 66-36 36z"/>
<glyph glyph-name="cs-video-off" unicode="&#57385;" d="M458 157l-143 82 0-91-126 0 126 166 0-42 143 82z m-333-9l-74 0 0 215 237 0z m241 212l0 21 75 98-41 31-73-96-327 0 0-317 86 0-50-66 41-31 73 97 216 0 0 54 143-83 0 374z"/>
<glyph glyph-name="cs-video-on" unicode="&#57386;" d="M51 156l264 0 0 92 143-83 0 197-143-82 0 92-264 0z m458-79l-143 82 0-54-366 0 0 318 366 0 0-54 143 82z"/>
<glyph glyph-name="cs-view-list" unicode="&#57410;" d="M0 384l76 0 0 51-76 0z m128 0l384 0 0 51-384 0z m0-154l384 0 0 52-384 0z m0-153l384 0 0 51-384 0z m-128 153l76 0 0 52-76 0z m0-153l76 0 0 51-76 0z"/>
<glyph glyph-name="cs-edit-element" unicode="&#52;" d="M307 461c0-28-23-51-51-51-28 0-51 23-51 51 0 28 23 51 51 51 28 0 51-23 51-51z m0-205c0-28-23-51-51-51-28 0-51 23-51 51 0 28 23 51 51 51 28 0 51-23 51-51z m0-205c0-28-23-51-51-51-28 0-51 23-51 51 0 28 23 51 51 51 28 0 51-23 51-51z"/>
<glyph glyph-name="cs-attachment" unicode="&#106;" d="M484 299l-186-227-40 33 187 226c24 31 16 79-20 108-34 28-81 28-106 1l-1-1-257-312c-14-17-9-45 12-62 21-17 50-17 64 0l0 0 186 227c2 2 2 5 2 6-1 4-3 8-7 11-6 5-14 5-17 1l-123-149-39 33 122 149c22 26 62 28 90 5 13-10 22-25 24-41 3-17-1-33-11-46l-1-2-187-227c0 0-1-1-1-1-17-20-42-30-68-30-23 0-47 8-66 24-42 35-51 94-20 133 0 0 0 1 1 1l255 311c0 1 1 1 2 2 43 50 123 53 179 6 57-46 69-127 26-179"/>
<glyph glyph-name="cs-print" unicode="&#125;" d="M384 410l128 0 0-256-102 0 0-154-308 0 0 154-102 0 0 256 128 0 0 102 256 0z m77-205l0 153-410 0 0-153 51 0 0 77 308 0 0-77z m-307-154l204 0 0 179-204 0z m25 359l154 0 0 51-154 0z"/>
<glyph glyph-name="cs-trash" unicode="&#57379;" d="M159 447l30 65 133 0 30-65 123 0 0-53-442 0 0 53z m54 0l86 0-7 15-72 0z m185-66l51 0 0-381-387 0 0 381 52 0 0-333 284 0z m-232-299l0 259 51 0 0-259z m128 0l0 259 52 0 0-259z"/>
<glyph glyph-name="cs-shield-on" unicode="&#57433;" d="M73 486c-8 0-14-6-15-14-13-99-8-180 21-252 29-71 81-131 158-191 6-5 14-5 20 0 78 60 129 120 157 192 29 71 34 152 23 251-1 12-14 18-25 12-60-36-116-35-154-2-6 6-15 6-22 0-37-33-93-34-154 2-3 2-6 3-9 2z"/>
<glyph glyph-name="cs-pin-on" unicode="&#57434;" d="M282 170l0-144-52 0 0 144-153 0 102 136 0 104-23 76 204 0-22-76 0-104 97-136z m-266 329l-4 5 0 4 0 0 1 2-6 0 1-2 0 0 0-4-4-5 6 0 0-5 0 0 0 5z"/>
<glyph glyph-name="cs-logo" unicode="&#57435;" d="M431 158c26-8 52-17 81-32-70 102-194 212-317 284 32-28 83-89 97-153 49-32 96-66 139-99z m-15 9c-58 17-107 18-143 14 13 28 15 56 9 84-89 57-188 108-282 145 69-42 146-165 178-297 68 18 173 31 310-11-23 22-47 43-72 65z"/>
<glyph glyph-name="cs-bulb" unicode="&#57439;" d="M384 152l-1-24-255 0 0 26c0 17-3 28-8 34 1-1-21 19-30 30-24 28-39 57-39 89 0 113 92 205 205 205 113 0 205-92 205-205 0-31-14-59-37-87-8-10-28-29-28-30-7-10-11-22-12-38z m-48 27c4 15 10 28 18 40 3 5 25 27 31 34 16 19 25 37 25 54 0 85-69 154-154 154-85 0-154-69-154-154 0-18 10-36 26-55 8-9 29-29 30-30 10-11 17-26 19-43z m-131 179l102 0 0-51-102 0z m-77-256l256 0 0-51-256 0z m51-51l154 0 0-51-154 0z"/>
<glyph glyph-name="cs-call" unicode="&#120;" d="M317 146l-7-2c-9-2-22-2-39 3-24 7-50 24-78 51-27 28-43 54-50 78-3 9-4 18-4 26 1 3 1 6 1 8l1 3 0 1 0 1 2 6 44 43-76 76-53-54c-1-2-2-5-3-9-3-12-5-25-3-42 6-49 37-107 103-174 67-67 126-98 176-105 17-2 31-1 43 3 4 1 7 2 9 2l53 54-75 75z m-125 144c4-16 16-34 37-56 22-21 41-33 57-38 3-1 5-1 7-1l68 67 148-147-95-95-3-1c-17-11-46-18-86-13-62 7-131 44-206 118-74 75-111 144-118 206-4 39 4 68 15 85l3 5 92 92 148-148-68-68c0-2 0-4 1-6z"/>
<glyph glyph-name="cs-report" unicode="&#57441;" d="M102 333l154 0 0 51-154 0z m0-205l128 0 0 51-128 0z m0 102l128 0 0 52-128 0z m205 205l0-153 51-24 0 228-358 0 0-460 244 0 0 51-193 0 0 358z m-25-409l0 230 199-115z"/>
<glyph glyph-name="cs-drag" unicode="&#57444;" d="M0 461l512 0 0-51-512 0z m0-359l512 0 0-51-512 0z m0 180l512 0 0-52-512 0z"/>
<glyph glyph-name="cs-alert-triangle-pending" unicode="&#103;" d="M88 84l393 0-54 95-57 0-114 199z m421-50l-507 0 254 444z m-279 276l52 0 0-146-52 0z m0-172l52 0 0-38-52 0z m103 0l38 0 0-38-38 0z m51 0l38 0 0-38-38 0z"/>
<glyph glyph-name="cs-reversed" unicode="&#57347;" d="M182 282l279 0 0-231-359 0 0 51 308 0 0 128-229 0 53-47-34-38-122 110-1 0 0 1 0 0 1 0 122 110 34-38z"/>
<glyph glyph-name="cs-reversed-entry" unicode="&#57446;" d="M51 410l103 0 0 51-154 0 0-410 154 0 0 51-103 0z m131-128l279 0 0-231-154 0 0 51 103 0 0 128-229 0 53-47-34-38-122 110-1 0 0 1 0 0 1 0 122 110 34-38z"/>
<glyph glyph-name="cs-moon" unicode="&#57447;" d="M248 509c-43-45-69-106-69-173 0-140 114-254 253-254 3 0 6 0 8 0-46-49-111-79-184-79-140 0-253 113-253 253 0 137 109 249 245 253z"/>
<glyph glyph-name="cs-screenshare" unicode="&#57448;" d="M2 57l0 310 412 0 0-310z m45 45l322 0 0 219-322 0z m463 43l-65 0 0 46 20 0 0 219-346 0 0-19-45 0 0 64 436 0z"/>
<glyph glyph-name="cs-trade-cancellation-rejected" unicode="&#57450;" d="M88 84l336 0-168 294z m421-50l-507 0 254 444z m-253 169l40 40 26-26-40-40 40-40-26-27-40 40-40-40-27 27 40 40-40 40 27 26z"/>
<glyph glyph-name="cs-follow" unicode="&#38;" d="M384 77l-77 0 0 51 77 0 0 77 51 0 0-77 77 0 0-51-77 0 0-77-51 0z m-230 320c0 35 28 64 64 64 35 0 64-29 64-64 0-36-29-64-64-64-36 0-64 28-64 64z m102-103c4 0 8 0 12 0 38 19 65 57 65 103 0 63-52 115-115 115-64 0-116-52-116-115 0-46 27-84 65-103 4 0 8 0 12 0z m25-13c-4 0-8 1-12 1l-77 0c-4 0-8-1-12-1-101-6-180-89-180-191l0-90 51 0 0 90c0 77 63 140 141 140l77 0c27 0 51-7 73-20l31 40c-27 18-58 29-92 31"/>
<glyph glyph-name="forecast" unicode="&#57453;" d="M424 243l-133-133 30-31 192 192-189 190-31-31 135-136-428 0 0-51 424 0"/>
<glyph glyph-name="cs-share-ios" unicode="&#57353;" d="M146 402l31-30 57 57 0-199 44 0 0 199 57-57 31 30-110 110z m238-95l-77 0 0 51 128 0 0-358-358 0 0 358 128 0 0-51-77 0 0-256 256 0z"/>
<glyph glyph-name="cs-key" unicode="&#57440;" d="M202 282l310 0 0-52-310 0c-12-44-52-76-100-76-56 0-102 45-102 102 0 57 46 102 102 102 48 0 88-32 100-76z m-100-77c29 0 52 23 52 51 0 28-23 51-52 51-28 0-51-23-51-51 0-28 23-51 51-51z m359 25l51 0 0-76-51 0z m-103 0l52 0 0-51-52 0z"/>
<glyph glyph-name="cs-enlarge" unicode="&#57443;" d="M205 0l-206 0 0 205 77-78 129 129 52-52-128-128z m102 512l206 0 0-205-77 78-128-129-52 52 128 128z"/>
<glyph glyph-name="cs-switch-contract" unicode="&#57449;" d="M339 174l88 0 0 44 89-66-89-66 0 44-88 0z m68-87l0-44-88 0 0-44-89 66 89 65 0-43z m-253 310c0 35 28 64 64 64 35 0 64-29 64-64 0-36-29-64-64-64-36 0-64 28-64 64z m102-103c4 0 8 0 12 0 38 19 65 57 65 103 0 63-52 115-115 115-64 0-116-52-116-115 0-46 27-84 65-103 4 0 8 0 12 0z m25-13c-4 0-8 1-12 1l-77 0c-4 0-8-1-12-1-101-6-180-89-180-191l0-90 51 0 0 90c0 77 63 140 141 140l77 0c27 0 51-7 73-20l31 40c-27 18-58 29-92 31"/>
<glyph glyph-name="cs-chat" unicode="&#51;" d="M102 512l410 0 0-308-77 0 0 51 29 0-3 206-307 0 0-26-52 0z m26-388l30 30 226 0 0 230-333 0 0-230 77 0z m-128 311l435 0 0-333-256 0-102-102 0 102-77 0z m102-102l231 0 0-51-231 0z m0-77l231 0 0-51-231 0z"/>
<glyph glyph-name="cs-unfollow" unicode="&#57382;" d="M434 89l54-55-36-36-54 54-55-54-36 36 55 55-55 54 36 36 55-54 54 54 36-36z m-280 308c0 35 28 64 64 64 35 0 64-29 64-64 0-36-29-64-64-64-36 0-64 28-64 64z m102-103c4 0 8 0 12 0 38 19 65 57 65 103 0 63-52 115-115 115-64 0-116-52-116-115 0-46 27-84 65-103 4 0 8 0 12 0z m25-13c-4 0-8 1-12 1l-77 0c-4 0-8-1-12-1-101-6-180-89-180-191l0-90 51 0 0 90c0 77 63 140 141 140l77 0c27 0 51-7 73-20l31 40c-27 18-58 29-92 31"/>
<glyph glyph-name="cs-audio-off" unicode="&#107;" d="M198 164l-10-10c20-11 44-17 70-17 71 0 129 48 129 108l0 50 51 0 0-50c0-80-67-146-154-157l0-32 70 0 0-52-192 0 0 52 71 0 0 32c-31 3-58 14-82 29l-117-117-36 36 115 115c-22 27-34 59-34 94l0 50 51 0 0-50c0-21 7-41 19-57l12 12c-11 17-18 38-18 61l0 130c0 62 52 113 115 113 57 0 104-41 114-94l106 106 36-36-141-141 0-78c0-62-51-113-115-113-22 0-42 6-60 16z m124 197l0 30c0 34-28 61-64 61-35 0-64-27-64-61l0-130c0-9 2-16 5-24z m0-73l-85-85c6-3 14-4 21-4 36 0 64 28 64 62z"/>
<glyph glyph-name="cs-cancelled-by-system" unicode="&#57442;" d="M51 410l0-231 410 0 0 231z m231-282l0-77 128 0 0-51-308 0 0 51 128 0 0 77-230 0 0 333 512 0 0-333z m-24 193l48 48 32-32-48-48 48-47-32-32-48 48-47-48-32 32 48 47-48 48 32 32z"/>
<glyph glyph-name="cs-logout" unicode="&#57400;" d="M77 461l179 0 0 51-230 0 0-512 230 0 0 51-179 0z m306-179l-70 64 34 38 143-131-148-137-35 38 84 76-237 0 0 52z"/>
<glyph glyph-name="cs-shield-off" unicode="&#57429;" d="M73 486c-8 0-14-6-15-14-13-99-8-180 21-252 29-71 81-131 158-191 6-5 14-5 20 0 78 60 129 120 157 192 29 71 34 152 23 251-1 12-14 18-25 12-60-36-116-35-154-2-6 6-15 6-22 0-37-33-93-34-154 2-3 2-6 3-9 2z m174-66c35-26 82-23 129-2 7-71 3-128-17-178-20-50-57-94-112-138-56 44-93 88-114 138-20 49-23 107-16 178 47-22 94-24 130 2z"/>
<glyph glyph-name="cs-cancel-no-circle" unicode="&#114;" d="M256 220l-130-131-36 37 130 130-130 130 36 36 130-130 130 130 37-36-131-130 131-130-37-37z"/>
<glyph glyph-name="cs-trend-green-up" unicode="&#57451;" d="M164 220l66 67 0-287 52 0 0 287 66-67 36 36-128 128-128-128z"/>
<glyph glyph-name="cs-trend-red-down" unicode="&#57452;" d="M164 164l66-67 0 287 52 0 0-287 66 67 36-36-128-128-128 128z"/>
<glyph glyph-name="cs-reject-file" unicode="&#57445;" d="M0 512l0-512 410 0 0 358-154 154z m51-51l154 0 0-179 153 0 0-52 52 0 0-230-154 0 0 51-205 0z m205-36l93-92-93 0z m187-320l63-63-36-36-63 63-64-63-36 36 64 63-64 64 36 36 64-64 63 64 36-36z"/>
<glyph glyph-name="cs-pagination-first" unicode="&#57454;" d="M179 384l-51 0 0-384 51 0z m236-36l-37 36-190-194 190-190 37 37-154 154z"/>
<glyph glyph-name="cs-pagination-last" unicode="&#57455;" d="M358 384l52 0 0-384-52 0z m-235-36l37 36 190-194-190-190-37 37 154 154z"/>
<glyph glyph-name="cs-pagination-next" unicode="&#57456;" d="M154 348l37 36 189-194-190-190-36 37 154 154z"/>
<glyph glyph-name="cs-pagination-previous" unicode="&#57457;" d="M380 348l-37 36-189-194 190-190 36 37-154 154z"/>
<glyph glyph-name="cs-more-details" unicode="&#91;" d="M0 384l333 0 0 51-333 0z m0-154l128 0 0 52-128 0z m0-153l333 0 0 51-333 0z m384 307l-36-36 67-66-236 0 0-52 236 0-67-66 36-36 128 128z"/>
<glyph glyph-name="cs-bottom-navigation" unicode="&#57462;" d="M230 205l52 0 0-205-52 0z m52 179l130 0 33 38-33 39-130 0z m-52-51l-130 0-33-39 33-38 130 0z m52 0l0-128-205 0-77 89 77 90 153 0 0 128 205 0 77-90-77-89z"/>
<glyph glyph-name="cs-general-account" unicode="&#57437;" d="M154 358c-43 0-77 35-77 77 0 43 34 77 77 77 42 0 76-34 76-77 0-42-34-77-76-77z m0 52c14 0 25 11 25 25 0 14-11 26-25 26-15 0-26-12-26-26 0-14 11-25 26-25z m-77-336l0-51-77 0 0 182c0 85 69 153 154 153 55 0 105-29 132-76l-44-26c-18 32-51 51-88 51-57 0-103-46-103-102l0-131z m77 105l0-128 307 0 0 128z m-52 51l410 0 0-230-410 0z m167-76l77 0 0-77-77 0z m-115 25l51 0 0-25-51 0z m0-102l51 0 0-26-51 0z m256 0l51 0 0-26-51 0z m0 102l51 0 0-25-51 0z"/>
<glyph glyph-name="cs-safekeeping-account" unicode="&#57464;" d="M51 461l0-410 410 0 0 410z m-51 51l512 0 0-512-512 0z m355-230l55 0 0-52-55 0c-11-44-51-76-99-76-57 0-102 45-102 102 0 57 45 102 102 102 48 0 88-32 99-76z m-55 0c-9 15-25 25-44 25-28 0-51-23-51-51 0-28 23-51 51-51 19 0 35 10 44 25l-44 0 0 52z m-198 76l-51 0 0 52 51 0z m0-256l-51 0 0 52 51 0z"/>
<glyph glyph-name="cs-pin-off" unicode="&#57465;" d="M217 150l147 146-104 18-85 86-17 29-72-72 30-16 86-86z m118 63l102-102-36-36-102 102-109-109-24 169-73 73-71 38 145 144 38-69 74-73 165-28z"/>
<glyph glyph-name="cs-money-market" unicode="&#57467;" d="M259 409l-36-36c-6 6-13 10-20 13-27 9-56-5-66-32-9-27 5-56 32-65l-16-48c-54 18-82 76-64 130 18 53 77 82 130 63 15-5 29-14 40-25z m181-232l-26 44c21 12 35 33 37 58 5 42-26 80-68 84-42 5-80-26-84-68l-51 5c7 70 70 121 140 114 71-7 122-70 114-141-4-40-27-76-62-96z m-172-159c-68 0-122 54-122 122 0 67 54 121 122 121 67 0 121-54 121-121 0-68-54-122-121-122z m0 51c38 0 70 32 70 71 0 38-32 70-70 70-39 0-71-32-71-70 0-39 32-71 71-71z"/>
<glyph glyph-name="cs-document" unicode="&#71;" d="M0 512l0-512 410 0 0 358-154 154z m51-51l154 0 0-179 153 0 0-231-307 0z m205-36l93-92-93 0z"/>
<glyph glyph-name="cs-current-account-1" unicode="&#57438;" d="M256 0c-141 0-256 115-256 256 0 141 115 256 256 256 141 0 256-115 256-256 0-141-115-256-256-256z m0 51c113 0 205 92 205 205 0 113-92 205-205 205-113 0-205-92-205-205 0-113 92-205 205-205z m-5 329l47 77c11-3 19-5 25-7 5-2 13-5 23-10l-30-50 30-31 0-30 14 4 27 11 36 30c6-9 11-16 14-22 3-5 7-13 10-23l-33-30-4-1-33-13-28-8-44 0-11 36 0 10-15 0-14 34 0 6z m-71 13l-31 38c9 5 16 9 22 12 6 2 14 5 25 9l35-40 0-32-10-18-3-4-5-6 13-13 16-27 0-31 9-1 10-32 1-2 2-8 27-10 5-1 43-24 3-2 22-17 0-25-9-30-11-8-8-9-2-3-25-21-12 0-6-4-2-2 0-28c-11-2-19-3-25-3-5-1-14 0-26 1l0 47 9 13 3 3 7 7 3 3 21 14 9 0 9 8 8 9 3 3-37 22-54 17-7 36-19 5-19 41 17 13 0 5-5 9-25 25 0 37 17 20z m-129-148c0 16 0 30 2 39 1 10 4 23 9 39l11 11 43-18 19-29 0-32 19-49-8-11-6-9-5-9-10-16 0-8-21-35c-6 7-12 14-17 22-6 8-10 16-14 24l0 3 0 1 11 43 6 0-14 27 8 20 0 14-1 2z"/>
<glyph glyph-name="cs-financing-widget" unicode="&#57468;" d="M128 179l0-128 333 0 0 51-128 0-32 77z m-51 51l258 0 32-76 145 0 0-154-435 0z m-77 0l51 0 0-230-51 0z m256-76l56 0 21-52-77 0z m-102 307l0-103 307 0 0 103z m-52 51l410 0 0-205-410 0z m180-77l51 0 0-51-51 0z m-128-51l51 0 0-26-51 0z m256 0l51 0 0-26-51 0z m0 77l51 0 0-26-51 0z m-256 0l51 0 0-26-51 0z"/>
<glyph glyph-name="cs-credit-card-account" unicode="&#57469;" d="M0 154l52 0 0 256 358 0 0-2 51 0 0 53-461 0z m154 153l0-205 307 0 0 205z m-52 51l410 0 0-307-410 0z m282-76l51 0 0-52-51 0z m-230-103l307 0 0-51-307 0z"/>
<glyph glyph-name="cs-saving-account" unicode="&#57471;" d="M401-2l-116 0-25 36-44 0-12-36-100 0-8 12-28 43c-33 43-53 76-60 100-20 68-9 157 57 220 24 23 64 36 119 45 22 3 45 5 70 6 9 1 18 1 27 2 4 0 16 0 19 0 15 4 42 15 82 33l36 16 0-113 42-50 51 0 0-158-50 0-60-77z m-51 51l0 46 86 110 24 0 0 56-24 0-69 82 0 53c-23-9-40-16-52-19-4-2-6-2-13-2-3 0-16 0-19-1-9 0-17 0-26-1-23-1-45-3-65-6-45-7-78-18-92-31-49-48-58-117-43-169 5-16 22-44 53-84l22-34 35 0 13 36 106 0 26-36z m8 233c0-15-11-26-25-26-14 0-26 11-26 26 0 14 12 25 26 25 14 0 25-11 25-25z m-101 183l-43-28c-12 20-37 29-59 21-20-7-34-25-35-46l-51 3c2 42 30 78 70 92 44 15 93-3 118-42z"/>
<glyph glyph-name="cs-private-account" unicode="&#57472;" d="M77 512l0-51c-14 0-26-12-26-26l-51 0c0 43 34 77 77 77z m-77-435l51 0c0-14 12-26 26-26l0-51c-43 0-77 34-77 77z m0 358l51 0c0-14 12-25 26-25l0-52c-43 0-77 35-77 77z m77 77l384 0 0-51-384 0z m333-51l51 0 0-51-51 0z m-333-51l435 0 0-52-435 0z m384-410l0 358 51 0 0-358z m-384 51l384 0 0-51-384 0z m-26 312l0-286-51 0 0 351c4-20 11-34 19-44 9-9 20-16 32-21z m282-81l0-52c-14 0-26-11-26-25 0-14 12-26 26-26l0-51c-43 0-77 34-77 77 0 42 34 77 77 77z m0 0l128 0 0-52-128 0z m0-103l128 0 0-51-128 0z"/>
<glyph glyph-name="cs-toggle-on" unicode="&#57463;" d="M384 320l-256 0c-72 0-128-56-128-128 0-72 56-128 128-128l256 0c72 0 128 56 128 128 0 72-56 128-128 128z m0-248c-67 0-120 53-120 120 0 67 53 120 120 120 67 0 120-53 120-120 0-67-53-120-120-120z"/>
<glyph glyph-name="cs-toggle-off" unicode="&#57458;" d="M384 320l-256 0c-72 0-128-56-128-128 0-72 56-128 128-128l256 0c72 0 128 56 128 128 0 72-56 128-128 128z m-376-128c0 67 53 120 120 120 67 0 120-53 120-120 0-67-53-120-120-120-67 0-120 53-120 120z m376-120l-210 0c46 18 82 66 82 120 0 54-36 102-82 120l210 0c67 0 120-53 120-120 0-67-53-120-120-120z"/>
<glyph glyph-name="cs-toggle-off-hover" unicode="&#57470;" d="M384 320l-256 0c-8 0-18 0-26-3-58-12-102-64-102-125 0-72 56-128 128-128l256 0c72 0 128 56 128 128 0 72-56 128-128 128z m-256-18c61 0 110-49 110-110 0-61-49-110-110-110-8 0-15 0-23 2-51 11-90 57-90 108 0 54 39 97 90 108 8 2 15 2 23 2z m256-220l-195 0c41 20 67 61 67 110 0 49-26 90-67 110l195 0c61 0 110-49 110-110 0-61-49-110-110-110z"/>
<glyph glyph-name="cs-toggle-on-hover" unicode="&#57473;" d="M384 320l-256 0c-72 0-128-59-128-128 0-69 59-128 128-128l256 0c72 0 128 59 128 128 0 69-56 128-128 128z m0-241c-61 0-113 52-113 113 0 61 52 113 113 113 61 0 113-52 113-113 0-61-52-113-113-113z"/>
<glyph glyph-name="cs-mortgage-account" unicode="&#57461;" d="M410 330l89-89-36-36-53 54 0-157-52 0 0 384 52-51 89-87-36-36-53 52z m-308-74l52 0 0-51-52 0z m77 0l51 0 0-51-51 0z m128 51l-141 141-140-141 0-205 51 0 0 185 87 89 92-92 0-182 51 0z m-307-256l512 0 0-51-512 0z"/>
<glyph glyph-name="cs-pension-account" unicode="&#57460;" d="M0 256l154 0 0-51-154 0z m179 128l154 0 0-51-154 0z m179 128l154 0 0-51-154 0z m-358-461l154 0 0-51-154 0z m179 0l154 0 0-51-154 0z m179 0l154 0 0-51-154 0z m-332 154l102 0 0-154-102 0z m179 128l102 0 0-282-102 0z m179 128l102 0 0-410-102 0z"/>
<glyph glyph-name="cs-scheduled-payments" unicode="&#57466;" d="M256 154l77 0 0-77-77 0z m100 76l0-51 54 0 0-25 51 0 0-77-51 0 0-26-231 0 0 26-51 0 0 51-51 0 0-128 435 0 0 230z m-177-76c-100 0-179 79-179 179 0 100 79 179 179 179 100 0 179-79 179-179 0-100-79-179-179-179z m0 51c72 0 128 56 128 128 0 71-56 128-128 128-71 0-128-57-128-128 0-72 57-128 128-128z m26 153l51 0 0-51-51 0z m-51 77l51 0 0-128-51 0z"/>
<glyph glyph-name="cs-timer" unicode="&#57474;" d="M461 256c0-113-92-205-205-205-113 0-205 92-205 205 0 113 92 205 205 205l0-205z m-205 256c-141 0-256-115-256-256 0-141 115-256 256-256 141 0 256 115 256 256 0 141-115 256-256 256z"/>
<glyph glyph-name="cs-reply" unicode="&#57346;" d="M512 231l-77 102-77-102 52 0 0-102-333 0 0-51 384 0 0 153 51 0m-512 51l77-102 77 102-52 0 0 102 333 0 0 51-384 0 0-153-51 0"/>
<glyph glyph-name="cs-portfolio-account" unicode="&#57459;" d="M256 512c-141 0-256-115-256-256 0-141 115-256 256-256 141 0 256 115 256 256 0 141-115 256-256 256z m-202-282l192 0 123-146c-34-20-72-33-113-33-105 0-189 80-202 179z m333-133z m20 21l-138 164-215 0c13 99 97 179 202 179 113 0 205-92 205-205 0-54-21-102-54-138z"/>
<glyph glyph-name="cs-money-bag" unicode="&#57475;" d="M14 493l0 0m370-426c-8-11-18-16-28-16l-197 0c-21 0-36 16-36 36 0 5 2 13 5 18l97 166 3 3c10 20 43 23 59 2l41 29c-5 7-13 15-21 20l41 69c5 8 8 18 8 26 0 28-23 54-54 54l-90 0c-28 0-53-23-53-54 0-10 2-18 7-28l39-67c-10-8-18-15-26-28l-95-169c-7-13-12-26-12-41 0-49 38-87 87-87l194 0c28 0 57 15 72 38z m-172 355l88 0 2-2-43-77 2 0-8 0-41 79c-2-2-2-2 0 0z m269-146c-15 11-30 16-48 16-13 0-23-5-31-13-8-10-15-20-18-36l84 0-10-28-77 0 0-18 70 0-11-28-56 0c3-13 8-23 15-31 8-7 21-13 31-13 21 0 38 6 51 18l0-46c-15-10-33-13-51-13-54 0-84 29-97 88l-28 0 10 28 18 0 0 18-26 0 10 28 18 0c8 30 18 51 36 66 16 13 39 21 64 21 18 0 39-5 62-18z"/>
<glyph glyph-name="cs-checmark-checked" unicode="&#113;" d="M512 251c0-141-115-256-256-256-141 0-256 115-256 256 0 141 115 256 256 256 141 0 256-115 256-256z m-51 0c0 113-92 205-205 205-113 0-205-92-205-205 0-113 92-205 205-205 113 0 205 92 205 205z m-103 115l-146-146-58 59-36-36 94-97 182 182z"/>
<glyph glyph-name="cs-checkmark-empty" unicode="&#112;" d="M512 256c0-141-115-256-256-256-141 0-256 115-256 256 0 141 115 256 256 256 141 0 256-115 256-256z m-51 0c0 113-92 205-205 205-113 0-205-92-205-205 0-113 92-205 205-205 113 0 205 92 205 205z"/>
<glyph glyph-name="cs-document-confirm" unicode="&#57476;" d="M197 243l-36-38 133-131 210 210-36 36-174-174-97 97m161-138l0-54-307 0 0 410 154 0 0-179 205 0 0 76-154 154-256 0 0-512 410 0 0 105z m-102 320l92-92-92 0z"/>
<glyph glyph-name="cs-document-edit" unicode="&#57477;" d="M115 118l0 118 279 276 118-118-282-276z m279 322l-228-228 0-46 46 0 228 228z m-36-235l0-154-307 0 0 410 254 0 0 51-305 0 0-512 410 0 0 205z"/>
<glyph glyph-name="cs-partially-online" unicode="&#57479;" d="M335 253c8-15 13-33 13-51l-56 0c0 16-3 31-5 46 2 3 7 3 10 5l-138 0 0 13c-8 3-18 3-26 5 8 23 15 41 28 54l0 51c-92-15-161-92-161-189 0-105 87-192 192-192 105 0 192 87 192 192 0 23-5 46-13 66z m-212 77c-10-13-15-28-21-46-10 5-18 13-20 18 10 10 26 21 41 28z m-64-54c8-10 20-17 36-25-3-15-5-31-5-46l-57 0c3 25 13 51 26 71z m-26-104l57 0c0-18 2-36 7-52-15-5-28-12-36-20-15 20-25 46-28 72z m49-98c2 5 10 10 23 16 5-18 13-34 23-46-18 7-33 17-46 30z m95-33c-16 8-29 28-39 56 10 3 23 5 39 5z m0 92c-16 0-34-2-49-5-3 13-5 28-5 44l54 0z m0 72l-54 0c0 13 2 25 2 36 16-5 34-8 52-8z m30 25c18 0 36 3 52 8 2-10 2-23 2-33l-54 0z m0-189l0 61c16 0 29-2 39-2-8-31-23-51-39-59z m0 95l0 36 54 0c0-16-2-29-5-41-13 2-31 2-49 5z m49-92c10 12 18 30 23 48 13-5 21-10 26-15-13-16-31-26-49-33z m69 58c-8 8-20 16-38 21 2 15 5 31 5 49l56 0c0-26-10-49-23-70z m-133 185l323 0 0 225-323 0z m64 192l192 0-95-77z m-33-11l130-97 128 97 0-148-258 0z"/>
<glyph glyph-name="cs-documents-call-report" unicode="&#73;" d="M51 51l0 410 154 0 0-179 153 0 0-231z m205 374l93-92-93 0z m0 87l-256 0 0-512 410 0 0 358z m-154-410l0 52 205 0 0-52z m0 77l0 51 205 0 0-51z m0 77l0 51 77 0 0-51z"/>
<glyph glyph-name="cs-fx" unicode="&#57436;" d="M520 77l-136 77 0-154z m-315 25l179 0 0-51-179 0z m102 77l-171 0 0 51-136-76 136-77 0 51 171 0z m-230 256l0-128 358 0 0 128z m-51 51l460 0 0-230-460 0z m192-76l76 0 0-77-76 0z m-141 25l51 0 0-25-51 0z m0-102l51 0 0-26-51 0z m307 0l51 0 0-26-51 0z m0 102l51 0 0-25-51 0z"/>
<glyph glyph-name="cs-hourglass" unicode="&#57478;" d="M51 512l410 0 0-51-410 0z m0-461l410 0 0-51-410 0z m51 410l0-128 110-77-110-77 0-128 52 0 0 103 102 71 102-71 0-103 52 0 0 128-3 0 3 0-110 77 110 77 0 128-52 0 0-103-204 0 0 103z"/>
<glyph glyph-name="cs-faq" unicode="&#56;" d="M256 460c-112 0-204-92-204-204 0-112 92-204 204-204 112 0 204 92 204 204 0 112-92 204-204 204m0-459c-141 0-255 114-255 255 0 141 114 255 255 255 141 0 255-114 255-255 0-141-114-255-255-255m-5 396c16 0 32-3 46-10 13-7 25-16 33-28 8-13 12-27 12-44 0-12-2-23-6-31-4-9-9-17-16-23-6-6-15-13-28-22-7-5-12-11-15-16-3-6-4-13-4-22l0-14-43 0 0 22c0 16 1 28 4 37 4 9 11 17 21 23 11 7 19 14 25 20 6 6 9 14 9 24 0 11-4 21-12 28-7 7-17 10-29 10-15 0-26-4-34-14-7-10-11-22-11-38l-47 7c1 28 10 50 27 66 17 17 40 25 68 25z m-26-281l0 53 52 0 0-53z"/>
<glyph glyph-name="editorial-umbrella" unicode="&#57480;" d="M448 320c0 106-86 192-192 192-106 0-192-86-192-192l176 0 0-256c0-18-14-32-32-32-18 0-32 14-32 32l0 32-32 0 0-32c0-35 29-64 64-64 35 0 64 29 64 64l0 256z m-192 160c77 0 142-55 157-128l-314 0c15 73 80 128 157 128z"/>
<glyph glyph-name="editorial-stack" unicode="&#57481;" d="M178 512l0-75-57 0 0-78-57 0 0-359 274 0 0 75 53 0 0 78 57 0 0 359z m128-327l0-153-210 0 0 295 104 0 0-107 106 0z m-74 140l72-73-72 0z m127-140l0-78-21 0 0 156-94 96-91 0 0 46 206 0z m57 0l-25 0 0 252-181 0 0 43 206 0z m-288 3l142 0 0-32-142 0z m0-64l89 0 0-32-89 0z"/>
<glyph glyph-name="editorial-scales" unicode="&#57482;" d="M448 239c-1 2-2 10-2 10l-62 263-26-7-230-57 0 0 0 0-62-262c0 0-1-8-2-10-1-10 1-17 3-24 9-32 40-56 77-57 36 1 67 24 77 57 2 7 4 14 3 24 0 2-2 10-2 10l-56 239 72 18 0-411-78 0 0-32 192 0 0 32-82 0 0 419 72 18-52-220c0 0-2-8-2-10-1-10 1-17 3-24 10-32 41-56 77-57 37 1 68 25 77 57 2 7 4 14 3 24z m-304-112c-21 1-41 14-46 33l93 0c-6-19-25-32-47-33z m46 65l-92 0c1 1 1 1 1 2 16 67 38 145 45 172 7-27 29-105 45-172 0-1 0-1 1-2z m178 237c7-27 29-104 45-172 0 0 0-1 0-1l-90 0c0 0 0 1 0 1 16 68 38 145 45 172z m0-239c-23 1-42 15-47 34l94 0c-5-19-25-33-47-34z"/>
<glyph glyph-name="editorial-pie-chart-2" unicode="&#57483;" d="M64 32l384 0 0-32-384 0z m384 256c0 65-35 122-88 152l-88-152z m-78 106c21-20 36-46 42-74l-85 0z m-26 94c-26 15-56 24-88 24-32 0-62-9-88-24l88-152z m-88-8c14 0 29-2 42-6l-42-74-42 74c13 4 28 6 42 6z m-96-58c-57-33-96-95-96-166 0-106 86-192 192-192 106 0 192 86 192 192l-192 0z m96-326c-88 0-160 72-160 160 0 46 20 90 54 120l78-136 10-16 175 0c-15-73-80-128-157-128z"/>
<glyph glyph-name="editorial-growth" unicode="&#57484;" d="M289 451l19 0-34 61-35-60 20 0c-7-81-38-144-93-186-46-36-93-44-102-44l0-30c15 0 68 9 121 50 43 33 95 96 104 209z m39 61l0-256-88 0 0-64-88 0 0-96-88 0 0-96 384 0 0 512z m-176-480l-56 0 0 32 56 0z m88 0l-56 0 0 128 56 0z m88 0l-56 0 0 192 56 0z m88 0l-56 0 0 448 56 0z"/>
<glyph glyph-name="editorial-decline" unicode="&#57485;" d="M64 32l0 480 32 0 0-58 97-201 84 169 133-285-24-18-109 231-87-175-94 211 0-354 352 0 0-32-384 0z"/>
<glyph glyph-name="editorial-calendar" unicode="&#57486;" d="M352 448l0 48c0 9-7 16-16 16-9 0-16-7-16-16l0-48-128 0 0 48c0 9-7 16-16 16-9 0-16-7-16-16l0-48-96 0 0-448 384 0 0 448z m64-416l-320 0 0 256 320 0z m0 288l-320 0 0 96 64 0 0-48c0-9 7-16 16-16 9 0 16 7 16 16l0 48 128 0 0-48c0-9 7-16 16-16 9 0 16 7 16 16l0 48 64 0z"/>
<glyph glyph-name="editorial-bills" unicode="&#57487;" d="M192 512l0-50-128 0 0-462 272 0 0 48 112 0 0 464z m112-82l0-111c-25 29-62 48-104 48-41 0-78-18-103-47l-1 0 0 110z m32-49c46-11 80-52 80-101 0-49-34-90-80-101z m-232-189c-5 12-8 25-8 39 0 21 6 41 17 57 25-2 46-22 46-48 0-26-21-47-47-48z m86 45c2-25 22-45 48-45 27 0 48 21 48 48 0 27-21 48-48 48-26 0-46-20-48-45-1 33-22 61-52 72 18 13 39 20 62 20 57 0 104-47 104-104 0-57-47-104-104-104-30 0-58 13-77 34 37 6 66 38 67 76z m32 3c0 9 7 16 16 16 9 0 16-7 16-16 0-9-7-16-16-16-9 0-16 7-16 16z m-126-208l0 112c25-30 62-49 104-49 42 0 79 19 104 49l0-112z m320 48l-80 0 0 66c32 6 60 23 80 46z m-80 334l0 48-112 0 0 18 192 0 0-112c-20 23-48 40-80 46z m-80 2l32 0 0-32-32 0z m112 48l32 0 0-32-32 0z m-256-384l32 0 0-32-32 0z"/>
<glyph glyph-name="editorial-analyse" unicode="&#57488;" d="M451 17l-104 172c45 33 73 85 73 144 0 98-79 178-178 178-98 0-178-80-178-178 0-98 80-178 178-178 28 0 54 6 78 18l103-172z m-355 316c0 80 66 146 146 146 81 0 146-66 146-146 0-80-65-146-146-146-80 0-146 66-146 146z m193 10l-26 27-32-45-47 62-35-132 24-6 22 81 37-48 34 49 35-35 34 114-24 8z"/>
<glyph glyph-name="cs-like" unicode="&#57489;" d="M333 333l179 0 0-271-67-62-244 0-99 31 0 292 57 28 71 161 116 0z m128-51l-179 0 0 179-26 0-56-147-48-23 0-222 57-18 216 0 36 33z m-461-231l51 0 0 256-51 0z"/>
<glyph glyph-name="setup-icon" unicode="&#57490;" d="M405 491c12 0 22-4 30-13 9-8 13-18 13-30l0-384c0-12-4-22-13-30-8-9-18-13-30-13l-213 0c-12 0-22 4-30 13-9 8-13 18-13 30l0 64 43 0 0-43 213 0 0 342-213 0 0-43-43 0 0 64c0 12 4 22 13 30 8 9 18 13 30 13z m-234-278c12 0 22 4 30 13 8 8 12 18 12 30 0 12-4 22-12 30-8 9-18 13-30 13-12 0-22-4-30-13-9-8-13-18-13-30 0-12 4-22 13-30 8-9 18-13 30-13z m81 32l23-19c3-2 4-4 2-6l-21-37c-1-1-3-2-6-2l-28 11-10-6c-3-3-6-4-9-5l-5-27-3-3c-1-1-2-2-3-2l-43 0c-1 0-2 1-4 2-1 1-1 2 0 3l-4 27c-3 1-6 2-9 5l-10 6-30-9c-2-1-4 0-7 3l-21 36c0 3 1 5 2 8l24 17 0 22-24 17-3 3c0 1 0 2 1 3l21 37c1 2 4 2 7 2l27-11c9 6 15 10 20 11l4 27 3 3c1 1 2 2 3 2l43 0c2 0 4-1 5-2 1-1 1-2 1-3l5-27c3-1 10-5 19-11l28 9c1 1 2 1 3 0l3-3 21-36c0-3-1-4-2-6l-23-17z"/>
<glyph glyph-name="cs-growth" unicode="&#57491;" d="M230 93l-36 36-7-1c-63-9-111 5-140 42-28 38-28 82-1 125l8 13 15-1c44-3 80-14 110-34 28-20 40-51 35-92l16-16 0 54 17 24c-51 76-56 141-9 189 44 45 117 70 219 78l17 2 8-16c37-76 37-143-2-198-37-51-100-77-187-80l-11-15 0-160 224 0 0-51-506 0 0 51 230 0z m101 180c51 7 86 26 107 55 25 35 27 77 5 130-81-9-137-30-169-62-24-24-24-59 5-107l70 100 42-30z m-181-42c-18 12-41 20-68 23-9-20-6-36 6-53 14-18 38-26 74-24 5 28 0 45-12 54z"/>
</font>
</defs>
</svg>
